  0
SECTION
  2
HEADER
  9
$ACADVER
  1
AC1027
  9
$ACADMAINTVER
 70
     8
  9
$DWGCODEPAGE
  3
ANSI_1252
  9
$REQUIREDVERSIONS
160
                 0
  9
$INSBASE
 10
0.0
 20
0.0
 30
0.0
  9
$EXTMIN
 10
-26.5684
 20
2.3876
 30
0.0
  9
$EXTMAX
 10
244.4955
 20
23.0505
 30
0.0
  9
$LIMMIN
 10
0.0
 20
0.0
  9
$LIMMAX
 10
12.0
 20
9.0
  9
$ORTHOMODE
 70
     0
  9
$REGENMODE
 70
     1
  9
$FILLMODE
 70
     1
  9
$QTEXTMODE
 70
     0
  9
$MIRRTEXT
 70
     1
  9
$LTSCALE
 40
1.0
  9
$ATTMODE
 70
     1
  9
$TEXTSIZE
 40
0.2
  9
$TRACEWID
 40
0.05
  9
$TEXTSTYLE
  7
Standard
  9
$CLAYER
  8
0
  9
$CELTYPE
  6
ByLayer
  9
$CECOLOR
 62
   178
  9
$CELTSCALE
 40
1.0
  9
$DISPSILH
 70
     0
  9
$DIMSCALE
 40
1.0
  9
$DIMASZ
 40
2.0
  9
$DIMEXO
 40
0.5
  9
$DIMDLI
 40
0.38
  9
$DIMRND
 40
0.0
  9
$DIMDLE
 40
0.0
  9
$DIMEXE
 40
1.0
  9
$DIMTP
 40
0.0
  9
$DIMTM
 40
0.0
  9
$DIMTXT
 40
2.0
  9
$DIMCEN
 40
0.09
  9
$DIMTSZ
 40
0.0
  9
$DIMTOL
 70
     0
  9
$DIMLIM
 70
     0
  9
$DIMTIH
 70
     1
  9
$DIMTOH
 70
     1
  9
$DIMSE1
 70
     0
  9
$DIMSE2
 70
     0
  9
$DIMTAD
 70
     0
  9
$DIMZIN
 70
     0
  9
$DIMBLK
  1

  9
$DIMASO
 70
     1
  9
$DIMSHO
 70
     1
  9
$DIMPOST
  1

  9
$DIMAPOST
  1

  9
$DIMALT
 70
     0
  9
$DIMALTD
 70
     2
  9
$DIMALTF
 40
25.4
  9
$DIMLFAC
 40
1.0
  9
$DIMTOFL
 70
     0
  9
$DIMTVP
 40
0.0
  9
$DIMTIX
 70
     0
  9
$DIMSOXD
 70
     0
  9
$DIMSAH
 70
     0
  9
$DIMBLK1
  1

  9
$DIMBLK2
  1

  9
$DIMSTYLE
  2
Standard
  9
$DIMCLRD
 70
   178
  9
$DIMCLRE
 70
   178
  9
$DIMCLRT
 70
   178
  9
$DIMTFAC
 40
1.0
  9
$DIMGAP
 40
0.5
  9
$DIMJUST
 70
     0
  9
$DIMSD1
 70
     0
  9
$DIMSD2
 70
     0
  9
$DIMTOLJ
 70
     1
  9
$DIMTZIN
 70
     0
  9
$DIMALTZ
 70
     0
  9
$DIMALTTZ
 70
     0
  9
$DIMUPT
 70
     0
  9
$DIMDEC
 70
     4
  9
$DIMTDEC
 70
     4
  9
$DIMALTU
 70
     2
  9
$DIMALTTD
 70
     2
  9
$DIMTXSTY
  7
Standard
  9
$DIMAUNIT
 70
     0
  9
$DIMADEC
 70
     0
  9
$DIMALTRND
 40
0.0
  9
$DIMAZIN
 70
     0
  9
$DIMDSEP
 70
    46
  9
$DIMATFIT
 70
     3
  9
$DIMFRAC
 70
     0
  9
$DIMLDRBLK
  1

  9
$DIMLUNIT
 70
     2
  9
$DIMLWD
 70
    -2
  9
$DIMLWE
 70
    -2
  9
$DIMTMOVE
 70
     0
  9
$DIMFXL
 40
1.0
  9
$DIMFXLON
 70
     0
  9
$DIMJOGANG
 40
0.7853981633974483
  9
$DIMTFILL
 70
     0
  9
$DIMTFILLCLR
 70
     0
  9
$DIMARCSYM
 70
     0
  9
$DIMLTYPE
  6

  9
$DIMLTEX1
  6

  9
$DIMLTEX2
  6

  9
$DIMTXTDIRECTION
 70
     0
  9
$LUNITS
 70
     2
  9
$LUPREC
 70
     4
  9
$SKETCHINC
 40
0.1
  9
$FILLETRAD
 40
0.5
  9
$AUNITS
 70
     0
  9
$AUPREC
 70
     0
  9
$MENU
  1
.
  9
$ELEVATION
 40
0.0
  9
$PELEVATION
 40
0.0
  9
$THICKNESS
 40
0.0
  9
$LIMCHECK
 70
     0
  9
$CHAMFERA
 40
0.0
  9
$CHAMFERB
 40
0.0
  9
$CHAMFERC
 40
0.0
  9
$CHAMFERD
 40
0.0
  9
$SKPOLY
 70
     0
  9
$TDCREATE
 40
2457083.925451389
  9
$TDUCREATE
 40
2457083.883784722
  9
$TDUPDATE
 40
2457083.925451389
  9
$TDUUPDATE
 40
2457083.883784722
  9
$TDINDWG
 40
0.0000000116
  9
$TDUSRTIMER
 40
0.0000000116
  9
$USRTIMER
 70
     1
  9
$ANGBASE
 50
0.0
  9
$ANGDIR
 70
     0
  9
$PDMODE
 70
     0
  9
$PDSIZE
 40
0.0
  9
$PLINEWID
 40
0.0
  9
$SPLFRAME
 70
     0
  9
$SPLINETYPE
 70
     6
  9
$SPLINESEGS
 70
     8
  9
$HANDSEED
  5
5BDA
  9
$SURFTAB1
 70
     6
  9
$SURFTAB2
 70
     6
  9
$SURFTYPE
 70
     6
  9
$SURFU
 70
     6
  9
$SURFV
 70
     6
  9
$UCSBASE
  2

  9
$UCSNAME
  2

  9
$UCSORG
 10
0.0
 20
0.0
 30
0.0
  9
$UCSXDIR
 10
1.0
 20
0.0
 30
0.0
  9
$UCSYDIR
 10
0.0
 20
1.0
 30
0.0
  9
$UCSORTHOREF
  2

  9
$UCSORTHOVIEW
 70
     0
  9
$UCSORGTOP
 10
0.0
 20
0.0
 30
0.0
  9
$UCSORGBOTTOM
 10
0.0
 20
0.0
 30
0.0
  9
$UCSORGLEFT
 10
0.0
 20
0.0
 30
0.0
  9
$UCSORGRIGHT
 10
0.0
 20
0.0
 30
0.0
  9
$UCSORGFRONT
 10
0.0
 20
0.0
 30
0.0
  9
$UCSORGBACK
 10
0.0
 20
0.0
 30
0.0
  9
$PUCSBASE
  2

  9
$PUCSNAME
  2

  9
$PUCSORG
 10
0.0
 20
0.0
 30
0.0
  9
$PUCSXDIR
 10
1.0
 20
0.0
 30
0.0
  9
$PUCSYDIR
 10
0.0
 20
1.0
 30
0.0
  9
$PUCSORTHOREF
  2

  9
$PUCSORTHOVIEW
 70
     0
  9
$PUCSORGTOP
 10
0.0
 20
0.0
 30
0.0
  9
$PUCSORGBOTTOM
 10
0.0
 20
0.0
 30
0.0
  9
$PUCSORGLEFT
 10
0.0
 20
0.0
 30
0.0
  9
$PUCSORGRIGHT
 10
0.0
 20
0.0
 30
0.0
  9
$PUCSORGFRONT
 10
0.0
 20
0.0
 30
0.0
  9
$PUCSORGBACK
 10
0.0
 20
0.0
 30
0.0
  9
$USERI1
 70
     0
  9
$USERI2
 70
     0
  9
$USERI3
 70
     0
  9
$USERI4
 70
     0
  9
$USERI5
 70
     0
  9
$USERR1
 40
0.0
  9
$USERR2
 40
0.0
  9
$USERR3
 40
0.0
  9
$USERR4
 40
0.0
  9
$USERR5
 40
0.0
  9
$WORLDVIEW
 70
     1
  9
$SHADEDGE
 70
     3
  9
$SHADEDIF
 70
    70
  9
$TILEMODE
 70
     1
  9
$MAXACTVP
 70
     2
  9
$PINSBASE
 10
0.0
 20
0.0
 30
0.0
  9
$PLIMCHECK
 70
     0
  9
$PEXTMIN
 10
1.000000000000000E+20
 20
1.000000000000000E+20
 30
1.000000000000000E+20
  9
$PEXTMAX
 10
-1.000000000000000E+20
 20
-1.000000000000000E+20
 30
-1.000000000000000E+20
  9
$PLIMMIN
 10
0.0
 20
0.0
  9
$PLIMMAX
 10
12.0
 20
9.0
  9
$UNITMODE
 70
     0
  9
$VISRETAIN
 70
     1
  9
$PLINEGEN
 70
     0
  9
$PSLTSCALE
 70
     1
  9
$TREEDEPTH
 70
  3020
  9
$CMLSTYLE
  2
Standard
  9
$CMLJUST
 70
     0
  9
$CMLSCALE
 40
1.0
  9
$PROXYGRAPHICS
 70
     1
  9
$MEASUREMENT
 70
     1
  9
$CELWEIGHT
370
    -1
  9
$ENDCAPS
280
     0
  9
$JOINSTYLE
280
     0
  9
$LWDISPLAY
290
     0
  9
$INSUNITS
 70
     4
  9
$HYPERLINKBASE
  1

  9
$STYLESHEET
  1

  9
$XEDIT
290
     1
  9
$CEPSNTYPE
380
     0
  9
$PSTYLEMODE
290
     1
  9
$FINGERPRINTGUID
  2
{5F7300A4-1925-9ACD-8F09-7CC35016EA84}
  9
$VERSIONGUID
  2
{FAEB1C32-E019-11D5-929B-00C0DF256EC4}
  9
$EXTNAMES
290
     1
  9
$PSVPSCALE
 40
0.0
  9
$OLESTARTUP
290
     0
  9
$SORTENTS
280
   127
  9
$INDEXCTL
280
     0
  9
$HIDETEXT
280
     1
  9
$XCLIPFRAME
280
     2
  9
$HALOGAP
280
     0
  9
$OBSCOLOR
 70
   257
  9
$OBSLTYPE
280
     0
  9
$INTERSECTIONDISPLAY
280
     0
  9
$INTERSECTIONCOLOR
 70
   257
  9
$DIMASSOC
280
     2
  9
$PROJECTNAME
  1

  9
$CAMERADISPLAY
290
     0
  9
$LENSLENGTH
 40
50.0
  9
$CAMERAHEIGHT
 40
0.0
  9
$STEPSPERSEC
 40
2.0
  9
$STEPSIZE
 40
6.0
  9
$3DDWFPREC
 40
2.0
  9
$PSOLWIDTH
 40
0.25
  9
$PSOLHEIGHT
 40
4.0
  9
$LOFTANG1
 40
1.570796326794897
  9
$LOFTANG2
 40
1.570796326794897
  9
$LOFTMAG1
 40
0.0
  9
$LOFTMAG2
 40
0.0
  9
$LOFTPARAM
 70
     7
  9
$LOFTNORMALS
280
     1
  9
$LATITUDE
 40
37.795
  9
$LONGITUDE
 40
-122.394
  9
$NORTHDIRECTION
 40
0.0
  9
$TIMEZONE
 70
 -8000
  9
$LIGHTGLYPHDISPLAY
280
     1
  9
$TILEMODELIGHTSYNCH
280
     1
  9
$CMATERIAL
347
5ACF
  9
$SOLIDHIST
280
     0
  9
$SHOWHIST
280
     1
  9
$DWFFRAME
280
     2
  9
$DGNFRAME
280
     2
  9
$REALWORLDSCALE
290
     1
  9
$INTERFERECOLOR
 62
   256
  9
$CSHADOW
280
     0
  9
$SHADOWPLANELOCATION
 40
0.0
  0
ENDSEC
  0
SECTION
  2
CLASSES
  0
CLASS
  1
ACDBDICTIONARYWDFLT
  2
AcDbDictionaryWithDefault
  3
ObjectDBX Classes
 90
        0
 91
        4
280
     0
281
     0
  0
CLASS
  1
VISUALSTYLE
  2
AcDbVisualStyle
  3
ObjectDBX Classes
 90
     4095
 91
        4
280
     0
281
     0
  0
CLASS
  1
MATERIAL
  2
AcDbMaterial
  3
ObjectDBX Classes
 90
     1153
 91
        4
280
     0
281
     0
  0
CLASS
  1
SCALE
  2
AcDbScale
  3
ObjectDBX Classes
 90
     1153
 91
        4
280
     0
281
     0
  0
CLASS
  1
TABLESTYLE
  2
AcDbTableStyle
  3
ObjectDBX Classes
 90
     4095
 91
        4
280
     0
281
     0
  0
CLASS
  1
MLEADERSTYLE
  2
AcDbMLeaderStyle
  3
ACDB_MLEADERSTYLE_CLASS
 90
     4095
 91
        4
280
     0
281
     0
  0
CLASS
  1
SUN
  2
AcDbSun
  3
SCENEOE
 90
     1153
 91
        4
280
     0
281
     0
  0
CLASS
  1
DICTIONARYVAR
  2
AcDbDictionaryVar
  3
ObjectDBX Classes
 90
        0
 91
        4
280
     0
281
     0
  0
CLASS
  1
CELLSTYLEMAP
  2
AcDbCellStyleMap
  3
ObjectDBX Classes
 90
     1152
 91
        4
280
     0
281
     0
  0
ENDSEC
  0
SECTION
  2
TABLES
  0
TABLE
  2
VPORT
  5
5A94
330
0
100
AcDbSymbolTable
 70
     1
  0
VPORT
  5
5AB4
330
5A94
100
AcDbSymbolTableRecord
100
AcDbViewportTableRecord
  2
*Active
 70
     0
 10
0.0
 20
0.0
 11
1.0
 21
1.0
 12
10.42990654205607
 22
4.5
 13
0.0
 23
0.0
 14
0.5
 24
0.5
 15
0.5
 25
0.5
 16
0.0
 26
0.0
 36
1.0
 17
0.0
 27
0.0
 37
0.0
 40
9.0
 41
1.972972972850329
 42
50.0
 43
0.0
 44
0.0
 50
0.0
 51
0.0
 71
     0
 72
   100
 73
     1
 74
     3
 75
     0
 76
     0
 77
     0
 78
     0
281
     0
 65
     1
110
0.0
120
0.0
130
0.0
111
1.0
121
0.0
131
0.0
112
0.0
122
1.0
132
0.0
 79
     0
146
0.0
 60
     3
 61
     5
292
     1
282
     1
141
0.0
142
0.0
 63
   250
361
5AF8
  0
ENDTAB
  0
TABLE
  2
LTYPE
  5
5A91
330
0
100
AcDbSymbolTable
 70
    48
  0
LTYPE
  5
5A9F
330
5A91
100
AcDbSymbolTableRecord
100
AcDbLinetypeTableRecord
  2
ByBlock
 70
     0
  3

 72
    65
 73
     0
 40
0.0
  0
LTYPE
  5
5AA0
330
5A91
100
AcDbSymbolTableRecord
100
AcDbLinetypeTableRecord
  2
ByLayer
 70
     0
  3

 72
    65
 73
     0
 40
0.0
  0
LTYPE
  5
5AA1
330
5A91
100
AcDbSymbolTableRecord
100
AcDbLinetypeTableRecord
  2
Continuous
 70
     0
  3
Solid line
 72
    65
 73
     0
 40
0.0
  0
LTYPE
  5
5B2E
330
5A91
100
AcDbSymbolTableRecord
100
AcDbLinetypeTableRecord
  2
ACAD_ISO02W100
 70
     0
  3
ISO dash __ __ __ __ __ __ __ __ __ __ __ __ __
 72
    65
 73
     2
 40
15.0
 49
12.0
 74
     0
 49
-3.0
 74
     0
  0
LTYPE
  5
5B2F
330
5A91
100
AcDbSymbolTableRecord
100
AcDbLinetypeTableRecord
  2
ACAD_ISO03W100
 70
     0
  3
ISO dash space __    __    __    __    __    __
 72
    65
 73
     2
 40
30.0
 49
12.0
 74
     0
 49
-18.0
 74
     0
  0
LTYPE
  5
5B30
330
5A91
100
AcDbSymbolTableRecord
100
AcDbLinetypeTableRecord
  2
ACAD_ISO04W100
 70
     0
  3
ISO long-dash dot ____ . ____ . ____ . ____ . _
 72
    65
 73
     4
 40
30.0
 49
24.0
 74
     0
 49
-3.0
 74
     0
 49
0.0
 74
     0
 49
-3.0
 74
     0
  0
LTYPE
  5
5B31
330
5A91
100
AcDbSymbolTableRecord
100
AcDbLinetypeTableRecord
  2
ACAD_ISO05W100
 70
     0
  3
ISO long-dash double-dot ____ .. ____ .. ____ . 
 72
    65
 73
     6
 40
33.0
 49
24.0
 74
     0
 49
-3.0
 74
     0
 49
0.0
 74
     0
 49
-3.0
 74
     0
 49
0.0
 74
     0
 49
-3.0
 74
     0
  0
LTYPE
  5
5B32
330
5A91
100
AcDbSymbolTableRecord
100
AcDbLinetypeTableRecord
  2
ACAD_ISO06W100
 70
     0
  3
ISO long-dash triple-dot ____ ... ____ ... ____
 72
    65
 73
     8
 40
36.0
 49
24.0
 74
     0
 49
-3.0
 74
     0
 49
0.0
 74
     0
 49
-3.0
 74
     0
 49
0.0
 74
     0
 49
-3.0
 74
     0
 49
0.0
 74
     0
 49
-3.0
 74
     0
  0
LTYPE
  5
5B33
330
5A91
100
AcDbSymbolTableRecord
100
AcDbLinetypeTableRecord
  2
ACAD_ISO07W100
 70
     0
  3
ISO dot . . . . . . . . . . . . . . . . . . . . 
 72
    65
 73
     2
 40
3.0
 49
0.0
 74
     0
 49
-3.0
 74
     0
  0
LTYPE
  5
5B34
330
5A91
100
AcDbSymbolTableRecord
100
AcDbLinetypeTableRecord
  2
ACAD_ISO08W100
 70
     0
  3
ISO long-dash short-dash ____ __ ____ __ ____ _
 72
    65
 73
     4
 40
36.0
 49
24.0
 74
     0
 49
-3.0
 74
     0
 49
6.0
 74
     0
 49
-3.0
 74
     0
  0
LTYPE
  5
5B35
330
5A91
100
AcDbSymbolTableRecord
100
AcDbLinetypeTableRecord
  2
ACAD_ISO09W100
 70
     0
  3
ISO long-dash double-short-dash ____ __ __ ____
 72
    65
 73
     6
 40
45.0
 49
24.0
 74
     0
 49
-3.0
 74
     0
 49
6.0
 74
     0
 49
-3.0
 74
     0
 49
6.0
 74
     0
 49
-3.0
 74
     0
  0
LTYPE
  5
5B36
330
5A91
100
AcDbSymbolTableRecord
100
AcDbLinetypeTableRecord
  2
ACAD_ISO10W100
 70
     0
  3
ISO dash dot __ . __ . __ . __ . __ . __ . __ . 
 72
    65
 73
     4
 40
18.0
 49
12.0
 74
     0
 49
-3.0
 74
     0
 49
0.0
 74
     0
 49
-3.0
 74
     0
  0
LTYPE
  5
5B37
330
5A91
100
AcDbSymbolTableRecord
100
AcDbLinetypeTableRecord
  2
ACAD_ISO11W100
 70
     0
  3
ISO double-dash dot __ __ . __ __ . __ __ . __ _
 72
    65
 73
     6
 40
33.0
 49
12.0
 74
     0
 49
-3.0
 74
     0
 49
12.0
 74
     0
 49
-3.0
 74
     0
 49
0.0
 74
     0
 49
-3.0
 74
     0
  0
LTYPE
  5
5B38
330
5A91
100
AcDbSymbolTableRecord
100
AcDbLinetypeTableRecord
  2
ACAD_ISO12W100
 70
     0
  3
ISO dash double-dot __ . . __ . . __ . . __ . . 
 72
    65
 73
     6
 40
21.0
 49
12.0
 74
     0
 49
-3.0
 74
     0
 49
0.0
 74
     0
 49
-3.0
 74
     0
 49
0.0
 74
     0
 49
-3.0
 74
     0
  0
LTYPE
  5
5B39
330
5A91
100
AcDbSymbolTableRecord
100
AcDbLinetypeTableRecord
  2
ACAD_ISO13W100
 70
     0
  3
ISO double-dash double-dot __ __ . . __ __ . . _
 72
    65
 73
     8
 40
36.0
 49
12.0
 74
     0
 49
-3.0
 74
     0
 49
12.0
 74
     0
 49
-3.0
 74
     0
 49
0.0
 74
     0
 49
-3.0
 74
     0
 49
0.0
 74
     0
 49
-3.0
 74
     0
  0
LTYPE
  5
5B3A
330
5A91
100
AcDbSymbolTableRecord
100
AcDbLinetypeTableRecord
  2
ACAD_ISO14W100
 70
     0
  3
ISO dash triple-dot __ . . . __ . . . __ . . . _
 72
    65
 73
     8
 40
24.0
 49
12.0
 74
     0
 49
-3.0
 74
     0
 49
0.0
 74
     0
 49
-3.0
 74
     0
 49
0.0
 74
     0
 49
-3.0
 74
     0
 49
0.0
 74
     0
 49
-3.0
 74
     0
  0
LTYPE
  5
5B3B
330
5A91
100
AcDbSymbolTableRecord
100
AcDbLinetypeTableRecord
  2
ACAD_ISO15W100
 70
     0
  3
ISO double-dash triple-dot __ __ . . . __ __ . .
 72
    65
 73
    10
 40
39.0
 49
12.0
 74
     0
 49
-3.0
 74
     0
 49
12.0
 74
     0
 49
-3.0
 74
     0
 49
0.0
 74
     0
 49
-3.0
 74
     0
 49
0.0
 74
     0
 49
-3.0
 74
     0
 49
0.0
 74
     0
 49
-3.0
 74
     0
  0
LTYPE
  5
5B3E
330
5A91
100
AcDbSymbolTableRecord
100
AcDbLinetypeTableRecord
  2
BATTING
 70
     0
  3
Batting SSSSSSSSSSSSSSSSSSSSSSSSSSSSSSSSSSSSSSSSSSSSSSS
 72
    65
 73
     4
 40
10.16254
 49
0.00254
 74
     0
 49
-2.54
 74
     2
 75
     0
340
5B3C
 46
2.54
 50
0.0
 44
-2.54
 45
0.0
  9
BAT
 49
-5.08
 74
     2
 75
     0
340
5B3D
 46
2.54
 50
180.0
 44
2.54
 45
0.0
  9
BAT
 49
-2.54
 74
     0
  0
LTYPE
  5
5B3F
330
5A91
100
AcDbSymbolTableRecord
100
AcDbLinetypeTableRecord
  2
BORDER
 70
     0
  3
Border __ __ . __ __ . __ __ . __ __ . __ __ .
 72
    65
 73
     6
 40
44.45
 49
12.7
 74
     0
 49
-6.35
 74
     0
 49
12.7
 74
     0
 49
-6.35
 74
     0
 49
0.0
 74
     0
 49
-6.35
 74
     0
  0
LTYPE
  5
5B40
330
5A91
100
AcDbSymbolTableRecord
100
AcDbLinetypeTableRecord
  2
BORDER2
 70
     0
  3
Border (.5x) __.__.__.__.__.__.__.__.__.__.__.
 72
    65
 73
     6
 40
22.225
 49
6.35
 74
     0
 49
-3.175
 74
     0
 49
6.35
 74
     0
 49
-3.175
 74
     0
 49
0.0
 74
     0
 49
-3.175
 74
     0
  0
LTYPE
  5
5B41
330
5A91
100
AcDbSymbolTableRecord
100
AcDbLinetypeTableRecord
  2
BORDERX2
 70
     0
  3
Border (2x) ____  ____  .  ____  ____  .  ___
 72
    65
 73
     6
 40
88.89999999999999
 49
25.4
 74
     0
 49
-12.7
 74
     0
 49
25.4
 74
     0
 49
-12.7
 74
     0
 49
0.0
 74
     0
 49
-12.7
 74
     0
  0
LTYPE
  5
5B42
330
5A91
100
AcDbSymbolTableRecord
100
AcDbLinetypeTableRecord
  2
CENTER
 70
     0
  3
Center ____ _ ____ _ ____ _ ____ _ ____ _ ____
 72
    65
 73
     4
 40
50.8
 49
31.75
 74
     0
 49
-6.35
 74
     0
 49
6.35
 74
     0
 49
-6.35
 74
     0
  0
LTYPE
  5
5B43
330
5A91
100
AcDbSymbolTableRecord
100
AcDbLinetypeTableRecord
  2
CENTER2
 70
     0
  3
Center (.5x) ___ _ ___ _ ___ _ ___ _ ___ _ ___
 72
    65
 73
     4
 40
28.575
 49
19.05
 74
     0
 49
-3.175
 74
     0
 49
3.175
 74
     0
 49
-3.175
 74
     0
  0
LTYPE
  5
5B44
330
5A91
100
AcDbSymbolTableRecord
100
AcDbLinetypeTableRecord
  2
CENTERX2
 70
     0
  3
Center (2x) ________  __  ________  __  _____
 72
    65
 73
     4
 40
101.6
 49
63.5
 74
     0
 49
-12.7
 74
     0
 49
12.7
 74
     0
 49
-12.7
 74
     0
  0
LTYPE
  5
5B45
330
5A91
100
AcDbSymbolTableRecord
100
AcDbLinetypeTableRecord
  2
DASHDOT
 70
     0
  3
Dash dot __ . __ . __ . __ . __ . __ . __ . __
 72
    65
 73
     4
 40
25.4
 49
12.7
 74
     0
 49
-6.35
 74
     0
 49
0.0
 74
     0
 49
-6.35
 74
     0
  0
LTYPE
  5
5B46
330
5A91
100
AcDbSymbolTableRecord
100
AcDbLinetypeTableRecord
  2
DASHDOT2
 70
     0
  3
Dash dot (.5x) _._._._._._._._._._._._._._._.
 72
    65
 73
     4
 40
12.7
 49
6.35
 74
     0
 49
-3.175
 74
     0
 49
0.0
 74
     0
 49
-3.175
 74
     0
  0
LTYPE
  5
5B47
330
5A91
100
AcDbSymbolTableRecord
100
AcDbLinetypeTableRecord
  2
DASHDOTX2
 70
     0
  3
Dash dot (2x) ____  .  ____  .  ____  .  ___
 72
    65
 73
     4
 40
50.8
 49
25.4
 74
     0
 49
-12.7
 74
     0
 49
0.0
 74
     0
 49
-12.7
 74
     0
  0
LTYPE
  5
5B48
330
5A91
100
AcDbSymbolTableRecord
100
AcDbLinetypeTableRecord
  2
DASHED
 70
     0
  3
Dashed __ __ __ __ __ __ __ __ __ __ __ __ __ _
 72
    65
 73
     2
 40
19.05
 49
12.7
 74
     0
 49
-6.35
 74
     0
  0
LTYPE
  5
5B49
330
5A91
100
AcDbSymbolTableRecord
100
AcDbLinetypeTableRecord
  2
DASHED2
 70
     0
  3
Dashed (.5x) _ _ _ _ _ _ _ _ _ _ _ _ _ _ _ _ _ 
 72
    65
 73
     2
 40
9.524999999999999
 49
6.35
 74
     0
 49
-3.175
 74
     0
  0
LTYPE
  5
5B4A
330
5A91
100
AcDbSymbolTableRecord
100
AcDbLinetypeTableRecord
  2
DASHEDX2
 70
     0
  3
Dashed (2x) ____  ____  ____  ____  ____  ___
 72
    65
 73
     2
 40
38.09999999999999
 49
25.4
 74
     0
 49
-12.7
 74
     0
  0
LTYPE
  5
5B4B
330
5A91
100
AcDbSymbolTableRecord
100
AcDbLinetypeTableRecord
  2
DIVIDE
 70
     0
  3
Divide ____ . . ____ . . ____ . . ____ . . ____
 72
    65
 73
     6
 40
31.75
 49
12.7
 74
     0
 49
-6.35
 74
     0
 49
0.0
 74
     0
 49
-6.35
 74
     0
 49
0.0
 74
     0
 49
-6.35
 74
     0
  0
LTYPE
  5
5B4C
330
5A91
100
AcDbSymbolTableRecord
100
AcDbLinetypeTableRecord
  2
DIVIDE2
 70
     0
  3
Divide (.5x) __..__..__..__..__..__..__..__.._
 72
    65
 73
     6
 40
15.875
 49
6.35
 74
     0
 49
-3.175
 74
     0
 49
0.0
 74
     0
 49
-3.175
 74
     0
 49
0.0
 74
     0
 49
-3.175
 74
     0
  0
LTYPE
  5
5B4D
330
5A91
100
AcDbSymbolTableRecord
100
AcDbLinetypeTableRecord
  2
DIVIDEX2
 70
     0
  3
Divide (2x) ________  .  .  ________  .  .  _
 72
    65
 73
     6
 40
63.5
 49
25.4
 74
     0
 49
-12.7
 74
     0
 49
0.0
 74
     0
 49
-12.7
 74
     0
 49
0.0
 74
     0
 49
-12.7
 74
     0
  0
LTYPE
  5
5B4E
330
5A91
100
AcDbSymbolTableRecord
100
AcDbLinetypeTableRecord
  2
DOT
 70
     0
  3
Dot . . . . . . . . . . . . . . . . . . . . . . . .
 72
    65
 73
     2
 40
6.35
 49
0.0
 74
     0
 49
-6.35
 74
     0
  0
LTYPE
  5
5B4F
330
5A91
100
AcDbSymbolTableRecord
100
AcDbLinetypeTableRecord
  2
DOT2
 70
     0
  3
Dot (.5x) ........................................
 72
    65
 73
     2
 40
3.175
 49
0.0
 74
     0
 49
-3.175
 74
     0
  0
LTYPE
  5
5B50
330
5A91
100
AcDbSymbolTableRecord
100
AcDbLinetypeTableRecord
  2
DOTX2
 70
     0
  3
Dot (2x) .  .  .  .  .  .  .  .  .  .  .  .  .  .
 72
    65
 73
     2
 40
12.7
 49
0.0
 74
     0
 49
-12.7
 74
     0
  0
LTYPE
  5
5B52
330
5A91
100
AcDbSymbolTableRecord
100
AcDbLinetypeTableRecord
  2
DRAINAGE
 70
     0
  3
Drainage ---->---->---->----
 72
    65
 73
     2
 40
10.16
 49
5.08
 74
     2
 75
     0
340
5B51
 46
2.54
 50
180.0
 44
0.0
 45
0.0
  9
RIGHT_ARROW
 49
5.08
 74
     0
  0
LTYPE
  5
5B54
330
5A91
100
AcDbSymbolTableRecord
100
AcDbLinetypeTableRecord
  2
DRAINAGE2
 70
     0
  3
Drainage reversed----<----<----<----
 72
    65
 73
     2
 40
10.16
 49
5.08
 74
     2
 75
     0
340
5B53
 46
2.54
 50
0.0
 44
0.0
 45
0.0
  9
RIGHT_ARROW
 49
5.08
 74
     0
  0
LTYPE
  5
5B56
330
5A91
100
AcDbSymbolTableRecord
100
AcDbLinetypeTableRecord
  2
FENCELINE1
 70
     0
  3
Fenceline circle ----0-----0----0-----0----0-----0--
 72
    65
 73
     4
 40
36.83
 49
6.35
 74
     0
 49
-2.54
 74
     2
 75
     0
340
5B55
 46
2.54
 50
0.0
 44
-2.54
 45
0.0
  9
CIRC1
 49
-2.54
 74
     0
 49
25.4
 74
     0
  0
LTYPE
  5
5B58
330
5A91
100
AcDbSymbolTableRecord
100
AcDbLinetypeTableRecord
  2
FENCELINE2
 70
     0
  3
Fenceline square ----[]-----[]----[]-----[]----[]---
 72
    65
 73
     4
 40
36.83
 49
6.35
 74
     0
 49
-2.54
 74
     2
 75
     0
340
5B57
 46
2.54
 50
0.0
 44
-2.54
 45
0.0
  9
BOX
 49
-2.54
 74
     0
 49
25.4
 74
     0
  0
LTYPE
  5
5B5A
330
5A91
100
AcDbSymbolTableRecord
100
AcDbLinetypeTableRecord
  2
GAS_LINE
 70
     0
  3
Gas line ----GAS----GAS----GAS----GAS----GAS----GAS--
 72
    65
 73
     3
 40
24.13
 49
12.7
 74
     0
 49
-5.08
 74
     2
 75
     0
340
5B59
 46
2.54
 50
0.0
 44
-2.54
 45
-1.27
  9
GAS
 49
-6.35
 74
     0
  0
LTYPE
  5
5B5B
330
5A91
100
AcDbSymbolTableRecord
100
AcDbLinetypeTableRecord
  2
HIDDEN
 70
     0
  3
Hidden __ __ __ __ __ __ __ __ __ __ __ __ __ __
 72
    65
 73
     2
 40
9.524999999999999
 49
6.35
 74
     0
 49
-3.175
 74
     0
  0
LTYPE
  5
5B5C
330
5A91
100
AcDbSymbolTableRecord
100
AcDbLinetypeTableRecord
  2
HIDDEN2
 70
     0
  3
Hidden (.5x) _ _ _ _ _ _ _ _ _ _ _ _ _ _ _ _ _ 
 72
    65
 73
     2
 40
4.762499999999999
 49
3.175
 74
     0
 49
-1.5875
 74
     0
  0
LTYPE
  5
5B5D
330
5A91
100
AcDbSymbolTableRecord
100
AcDbLinetypeTableRecord
  2
HIDDENX2
 70
     0
  3
Hidden (2x) ____ ____ ____ ____ ____ ____ ____ 
 72
    65
 73
     2
 40
19.05
 49
12.7
 74
     0
 49
-6.35
 74
     0
  0
LTYPE
  5
5B5F
330
5A91
100
AcDbSymbolTableRecord
100
AcDbLinetypeTableRecord
  2
HOT_WATER_SUPPLY
 70
     0
  3
Hot water supply ---- HW ---- HW ---- HW ----
 72
    65
 73
     3
 40
22.86
 49
12.7
 74
     0
 49
-5.08
 74
     2
 75
     0
340
5B5E
 46
2.54
 50
0.0
 44
-2.54
 45
-1.27
  9
HW
 49
-5.08
 74
     0
  0
LTYPE
  5
5B60
330
5A91
100
AcDbSymbolTableRecord
100
AcDbLinetypeTableRecord
  2
PHANTOM
 70
     0
  3
Phantom ______  __  __  ______  __  __  ______ 
 72
    65
 73
     6
 40
63.50000000000001
 49
31.75
 74
     0
 49
-6.35
 74
     0
 49
6.35
 74
     0
 49
-6.35
 74
     0
 49
6.35
 74
     0
 49
-6.35
 74
     0
  0
LTYPE
  5
5B61
330
5A91
100
AcDbSymbolTableRecord
100
AcDbLinetypeTableRecord
  2
PHANTOM2
 70
     0
  3
Phantom (.5x) ___ _ _ ___ _ _ ___ _ _ ___ _ _
 72
    65
 73
     6
 40
31.75
 49
15.875
 74
     0
 49
-3.175
 74
     0
 49
3.175
 74
     0
 49
-3.175
 74
     0
 49
3.175
 74
     0
 49
-3.175
 74
     0
  0
LTYPE
  5
5B62
330
5A91
100
AcDbSymbolTableRecord
100
AcDbLinetypeTableRecord
  2
PHANTOMX2
 70
     0
  3
Phantom (2x) ____________    ____    ____   _
 72
    65
 73
     6
 40
127.0
 49
63.5
 74
     0
 49
-12.7
 74
     0
 49
12.7
 74
     0
 49
-12.7
 74
     0
 49
12.7
 74
     0
 49
-12.7
 74
     0
  0
LTYPE
  5
5B64
330
5A91
100
AcDbSymbolTableRecord
100
AcDbLinetypeTableRecord
  2
TRACKS
 70
     0
  3
Tracks -|-|-|-|-|-|-|-|-|-|-|-|-|-|-|-|-|-|-|-|-|-|-|-|-
 72
    65
 73
     2
 40
7.62
 49
3.81
 74
     2
 75
     0
340
5B63
 46
6.35
 50
0.0
 44
0.0
 45
0.0
  9
TRACK1
 49
3.81
 74
     0
  0
LTYPE
  5
5B67
330
5A91
100
AcDbSymbolTableRecord
100
AcDbLinetypeTableRecord
  2
ZIGZAG
 70
     0
  3
Zig zag /\/\/\/\/\/\/\/\/\/\/\/\/\/\/\/\/\/\/\/\/\/\/\/
 72
    65
 73
     4
 40
20.32254
 49
0.00254
 74
     0
 49
-5.08
 74
     2
 75
     0
340
5B65
 46
5.08
 50
0.0
 44
-5.08
 45
0.0
  9
ZIG
 49
-10.16
 74
     2
 75
     0
340
5B66
 46
5.08
 50
180.0
 44
5.08
 45
0.0
  9
ZIG
 49
-5.08
 74
     0
  0
ENDTAB
  0
TABLE
  2
LAYER
  5
5A8E
330
0
100
AcDbSymbolTable
 70
     8
  0
LAYER
  5
5A9C
330
5A8E
100
AcDbSymbolTableRecord
100
AcDbLayerTableRecord
  2
0
 70
     0
 62
     7
420
 16777215
  6
Continuous
370
    -3
390
5A9B
347
5AD1
348
0
  0
LAYER
  5
5B68
330
5A8E
100
AcDbSymbolTableRecord
100
AcDbLayerTableRecord
  2
Measur
 70
     0
 62
     6
420
 16711935
  6
Continuous
370
    13
390
5A9B
347
5AD1
348
0
  0
LAYER
  5
5B69
330
5A8E
100
AcDbSymbolTableRecord
100
AcDbLayerTableRecord
  2
Dimension
 70
     0
 62
     3
420
    65280
  6
Continuous
370
    25
390
5A9B
347
5AD1
348
0
  0
LAYER
  5
5B6A
330
5A8E
100
AcDbSymbolTableRecord
100
AcDbLayerTableRecord
  2
TOP_S
 70
     0
 62
   253
420
 11382189
  6
Continuous
370
    18
390
5A9B
347
5AD1
348
0
  0
LAYER
  5
5B6B
330
5A8E
100
AcDbSymbolTableRecord
100
AcDbLayerTableRecord
  2
BOTTOM_S
 70
     0
 62
   253
420
 11382189
  6
Continuous
370
    18
390
5A9B
347
5AD1
348
0
  0
LAYER
  5
5B6C
330
5A8E
100
AcDbSymbolTableRecord
100
AcDbLayerTableRecord
  2
Area
 70
     0
 62
    96
420
    32768
  6
Continuous
370
    25
390
5A9B
347
5AD1
348
0
  0
LAYER
  5
5B6D
330
5A8E
100
AcDbSymbolTableRecord
100
AcDbLayerTableRecord
  2
PIN_HEADER
 70
     0
 62
   253
420
 11382189
  6
Continuous
370
    18
390
5A9B
347
5AD1
348
0
  0
LAYER
  5
5B98
330
5A8E
100
AcDbSymbolTableRecord
100
AcDbLayerTableRecord
  2
Defpoints
 70
     0
 62
     7
  6
Continuous
290
     0
370
    -3
390
5A9B
347
5AD1
348
0
  0
ENDTAB
  0
TABLE
  2
STYLE
  5
5A8F
330
0
100
AcDbSymbolTable
 70
    12
  0
STYLE
  5
5A9D
330
5A8F
100
AcDbSymbolTableRecord
100
AcDbTextStyleTableRecord
  2
Standard
 70
     0
 40
0.0
 41
1.0
 50
0.0
 71
     0
 42
0.2
  3
txt
  4

  0
STYLE
  5
5B3C
330
5A8F
100
AcDbSymbolTableRecord
100
AcDbTextStyleTableRecord
  2
textstyle0
 70
     0
 40
0.0
 41
1.0
 50
0.0
 71
     0
 42
0.2
  3
ltypeshp.shx
  4

  0
STYLE
  5
5B3D
330
5A8F
100
AcDbSymbolTableRecord
100
AcDbTextStyleTableRecord
  2
textstyle1
 70
     0
 40
0.0
 41
1.0
 50
0.0
 71
     0
 42
0.2
  3
ltypeshp.shx
  4

  0
STYLE
  5
5B51
330
5A8F
100
AcDbSymbolTableRecord
100
AcDbTextStyleTableRecord
  2
textstyle2
 70
     0
 40
0.0
 41
1.0
 50
0.0
 71
     0
 42
0.2
  3
qcadshp.shx
  4

  0
STYLE
  5
5B53
330
5A8F
100
AcDbSymbolTableRecord
100
AcDbTextStyleTableRecord
  2
textstyle3
 70
     0
 40
0.0
 41
1.0
 50
0.0
 71
     0
 42
0.2
  3
qcadshp.shx
  4

  0
STYLE
  5
5B55
330
5A8F
100
AcDbSymbolTableRecord
100
AcDbTextStyleTableRecord
  2
textstyle4
 70
     0
 40
0.0
 41
1.0
 50
0.0
 71
     0
 42
0.2
  3
ltypeshp.shx
  4

  0
STYLE
  5
5B57
330
5A8F
100
AcDbSymbolTableRecord
100
AcDbTextStyleTableRecord
  2
textstyle5
 70
     0
 40
0.0
 41
1.0
 50
0.0
 71
     0
 42
0.2
  3
ltypeshp.shx
  4

  0
STYLE
  5
5B59
330
5A8F
100
AcDbSymbolTableRecord
100
AcDbTextStyleTableRecord
  2
textstyle6
 70
     0
 40
0.0
 41
1.0
 50
0.0
 71
     0
 42
0.2
  3
STANDARD
  4

  0
STYLE
  5
5B5E
330
5A8F
100
AcDbSymbolTableRecord
100
AcDbTextStyleTableRecord
  2
textstyle7
 70
     0
 40
0.0
 41
1.0
 50
0.0
 71
     0
 42
0.2
  3
STANDARD
  4

  0
STYLE
  5
5B63
330
5A8F
100
AcDbSymbolTableRecord
100
AcDbTextStyleTableRecord
  2
textstyle8
 70
     0
 40
0.0
 41
1.0
 50
0.0
 71
     0
 42
0.2
  3
ltypeshp.shx
  4

  0
STYLE
  5
5B65
330
5A8F
100
AcDbSymbolTableRecord
100
AcDbTextStyleTableRecord
  2
textstyle9
 70
     0
 40
0.0
 41
1.0
 50
0.0
 71
     0
 42
0.2
  3
ltypeshp.shx
  4

  0
STYLE
  5
5B66
330
5A8F
100
AcDbSymbolTableRecord
100
AcDbTextStyleTableRecord
  2
textstyle10
 70
     0
 40
0.0
 41
1.0
 50
0.0
 71
     0
 42
0.2
  3
ltypeshp.shx
  4

  0
ENDTAB
  0
TABLE
  2
VIEW
  5
5A92
330
0
100
AcDbSymbolTable
 70
     0
  0
ENDTAB
  0
TABLE
  2
UCS
  5
5A93
330
0
100
AcDbSymbolTable
 70
     0
  0
ENDTAB
  0
TABLE
  2
APPID
  5
5A95
330
0
100
AcDbSymbolTable
 70
     2
  0
APPID
  5
5A9E
330
5A95
100
AcDbSymbolTableRecord
100
AcDbRegAppTableRecord
  2
ACAD
 70
     0
  0
APPID
  5
5AF9
330
5A95
100
AcDbSymbolTableRecord
100
AcDbRegAppTableRecord
  2
QCAD
 70
     0
  0
ENDTAB
  0
TABLE
  2
DIMSTYLE
  5
5A96
330
0
100
AcDbSymbolTable
 70
     2
100
AcDbDimStyleTable
  0
DIMSTYLE
105
5AB2
330
5A96
100
AcDbSymbolTableRecord
100
AcDbDimStyleTableRecord
  2
Standard
 70
     0
178
     0
340
5A9D
  0
DIMSTYLE
105
5B2D
102
{ACAD_REACTORS
330
5A83
330
5A84
330
5A85
330
5A86
330
5A87
102
}
330
5A96
100
AcDbSymbolTableRecord
100
AcDbDimStyleTableRecord
  2
QCADDimStyle
 70
     0
 41
2.0
 42
0.5
 44
1.0
 73
     0
 77
     1
140
2.0
147
0.5
178
     0
340
5A9D
  0
ENDTAB
  0
TABLE
  2
BLOCK_RECORD
  5
5A8D
330
0
100
AcDbSymbolTable
 70
    20
  0
BLOCK_RECORD
  5
5AAA
330
5A8D
100
AcDbSymbolTableRecord
100
AcDbBlockTableRecord
  2
*Model_Space
340
5AAD
 70
     0
280
     1
281
     0
  0
BLOCK_RECORD
  5
5AA6
330
5A8D
100
AcDbSymbolTableRecord
100
AcDbBlockTableRecord
  2
*Paper_Space
340
5AA9
 70
     0
280
     1
281
     0
  0
BLOCK_RECORD
  5
5AAE
330
5A8D
100
AcDbSymbolTableRecord
100
AcDbBlockTableRecord
  2
*Paper_Space0
340
5AB1
 70
     0
280
     1
281
     0
  0
BLOCK_RECORD
  5
5B6E
330
5A8D
100
AcDbSymbolTableRecord
100
AcDbBlockTableRecord
  2
RECT
340
0
 70
     0
280
     1
281
     0
  0
BLOCK_RECORD
  5
5B71
330
5A8D
100
AcDbSymbolTableRecord
100
AcDbBlockTableRecord
  2
PIE
340
0
 70
     0
280
     1
281
     0
  0
BLOCK_RECORD
  5
5B74
330
5A8D
100
AcDbSymbolTableRecord
100
AcDbBlockTableRecord
  2
OCTAGONP
340
0
 70
     0
280
     1
281
     0
  0
BLOCK_RECORD
  5
5B77
330
5A8D
100
AcDbSymbolTableRecord
100
AcDbBlockTableRecord
  2
SQUAREP
340
0
 70
     0
280
     1
281
     0
  0
BLOCK_RECORD
  5
5B7A
330
5A8D
100
AcDbSymbolTableRecord
100
AcDbBlockTableRecord
  2
ROUNDP
340
0
 70
     0
280
     1
281
     0
  0
BLOCK_RECORD
  5
5B7D
330
5A8D
100
AcDbSymbolTableRecord
100
AcDbBlockTableRecord
  2
ANNULUSP
340
0
 70
     0
280
     1
281
     0
  0
BLOCK_RECORD
  5
5B80
330
5A8D
100
AcDbSymbolTableRecord
100
AcDbBlockTableRecord
  2
THERMALP
340
0
 70
     0
280
     1
281
     0
  0
BLOCK_RECORD
  5
5B83
330
5A8D
100
AcDbSymbolTableRecord
100
AcDbBlockTableRecord
  2
OCTAGONV
340
0
 70
     0
280
     1
281
     0
  0
BLOCK_RECORD
  5
5B86
330
5A8D
100
AcDbSymbolTableRecord
100
AcDbBlockTableRecord
  2
SQUAREV
340
0
 70
     0
280
     1
281
     0
  0
BLOCK_RECORD
  5
5B89
330
5A8D
100
AcDbSymbolTableRecord
100
AcDbBlockTableRecord
  2
ROUNDV
340
0
 70
     0
280
     1
281
     0
  0
BLOCK_RECORD
  5
5B8C
330
5A8D
100
AcDbSymbolTableRecord
100
AcDbBlockTableRecord
  2
ANNULUSV
340
0
 70
     0
280
     1
281
     0
  0
BLOCK_RECORD
  5
5B8F
330
5A8D
100
AcDbSymbolTableRecord
100
AcDbBlockTableRecord
  2
THERMALV
340
0
 70
     0
280
     1
281
     0
  0
BLOCK_RECORD
  5
5B92
330
5A8D
100
AcDbSymbolTableRecord
100
AcDbBlockTableRecord
  2
RECT142240X223520R50
340
0
 70
     0
280
     1
281
     0
  0
BLOCK_RECORD
  5
5B95
330
5A8D
100
AcDbSymbolTableRecord
100
AcDbBlockTableRecord
  2
RECT174752X256032R50
340
0
 70
     0
280
     1
281
     0
  0
BLOCK_RECORD
  5
5B99
330
5A8D
100
AcDbSymbolTableRecord
100
AcDbBlockTableRecord
  2
*D15
340
0
 70
     0
280
     1
281
     0
  0
BLOCK_RECORD
  5
5BA5
330
5A8D
100
AcDbSymbolTableRecord
100
AcDbBlockTableRecord
  2
*D16
340
0
 70
     0
280
     1
281
     0
  0
BLOCK_RECORD
  5
5BB1
330
5A8D
100
AcDbSymbolTableRecord
100
AcDbBlockTableRecord
  2
*D17
340
0
 70
     0
280
     1
281
     0
  0
BLOCK_RECORD
  5
5BBB
330
5A8D
100
AcDbSymbolTableRecord
100
AcDbBlockTableRecord
  2
*D18
340
0
 70
     0
280
     1
281
     0
  0
BLOCK_RECORD
  5
5BC5
330
5A8D
100
AcDbSymbolTableRecord
100
AcDbBlockTableRecord
  2
*D19
340
0
 70
     0
280
     1
281
     0
  0
ENDTAB
  0
ENDSEC
  0
SECTION
  2
BLOCKS
  0
BLOCK
  5
5AAB
330
5AAA
100
AcDbEntity
  8
0
100
AcDbBlockBegin
  2
*Model_Space
 70
     0
 10
0.0
 20
0.0
 30
0.0
  3
*Model_Space
  1
*Model_Space
  0
ENDBLK
  5
5AAC
330
5AAA
100
AcDbEntity
  8
0
100
AcDbBlockEnd
  0
BLOCK
  5
5AA7
330
5AA6
100
AcDbEntity
 67
     1
  8
0
100
AcDbBlockBegin
  2
*Paper_Space
 70
     0
 10
0.0
 20
0.0
 30
0.0
  3
*Paper_Space
  1
*Paper_Space
  0
ENDBLK
  5
5AA8
330
5AA6
100
AcDbEntity
 67
     1
  8
0
100
AcDbBlockEnd
  0
BLOCK
  5
5AAF
330
5AAE
100
AcDbEntity
  8
0
100
AcDbBlockBegin
  2
*Paper_Space0
 70
     0
 10
0.0
 20
0.0
 30
0.0
  3
*Paper_Space0
  1
*Paper_Space0
  0
ENDBLK
  5
5AB0
330
5AAE
100
AcDbEntity
  8
0
100
AcDbBlockEnd
  0
BLOCK
  5
5B6F
330
5B6E
100
AcDbEntity
  8
0
100
AcDbBlockBegin
  2
RECT
 70
     0
 10
0.0
 20
0.0
 30
0.0
  3
RECT
  1
RECT
  0
SOLID
  5
35
330
5B6E
100
AcDbEntity
  8
0
100
AcDbTrace
 10
-0.5
 20
-0.5
 30
0.0
 11
0.5
 21
-0.5
 31
0.0
 12
-0.5
 22
0.5
 32
0.0
 13
0.5
 23
0.5
 33
0.0
  0
ENDBLK
  5
5B70
330
5B6E
100
AcDbEntity
  8
0
100
AcDbBlockEnd
  0
BLOCK
  5
5B72
330
5B71
100
AcDbEntity
  8
0
100
AcDbBlockBegin
  2
PIE
 70
     0
 10
0.0
 20
0.0
 30
0.0
  3
PIE
  1
PIE
  0
LWPOLYLINE
  5
39
330
5B71
100
AcDbEntity
  8
0
100
AcDbPolyline
 90
        3
 70
     0
 43
0.0
 10
0.0
 20
-0.25
 42
1.0
 10
0.0
 20
0.25
 42
1.0
 10
0.0
 20
-0.25
  0
ENDBLK
  5
5B73
330
5B71
100
AcDbEntity
  8
0
100
AcDbBlockEnd
  0
BLOCK
  5
5B75
330
5B74
100
AcDbEntity
  8
0
100
AcDbBlockBegin
  2
OCTAGONP
 70
     0
 10
0.0
 20
0.0
 30
0.0
  3
OCTAGONP
  1
OCTAGONP
  0
LWPOLYLINE
  5
41
330
5B74
100
AcDbEntity
  8
0
100
AcDbPolyline
 90
       10
 70
     0
 43
0.0
 10
-0.25
 20
-0.1036
 10
-0.25
 20
0.1036
 10
-0.1036
 20
0.25
 10
0.1036
 20
0.25
 10
0.25
 20
0.1036
 10
0.25
 20
-0.1036
 10
0.1036
 20
-0.25
 10
-0.1036
 20
-0.25
 10
-0.25
 20
-0.1036
 10
-0.25
 20
0.1036
  0
ENDBLK
  5
5B76
330
5B74
100
AcDbEntity
  8
0
100
AcDbBlockEnd
  0
BLOCK
  5
5B78
330
5B77
100
AcDbEntity
  8
0
100
AcDbBlockBegin
  2
SQUAREP
 70
     0
 10
0.0
 20
0.0
 30
0.0
  3
SQUAREP
  1
SQUAREP
  0
SOLID
  5
50
330
5B77
100
AcDbEntity
  8
0
100
AcDbTrace
 10
-0.5
 20
-0.5
 30
0.0
 11
0.5
 21
-0.5
 31
0.0
 12
-0.5
 22
0.5
 32
0.0
 13
0.5
 23
0.5
 33
0.0
  0
ENDBLK
  5
5B79
330
5B77
100
AcDbEntity
  8
0
100
AcDbBlockEnd
  0
BLOCK
  5
5B7B
330
5B7A
100
AcDbEntity
  8
0
100
AcDbBlockBegin
  2
ROUNDP
 70
     0
 10
0.0
 20
0.0
 30
0.0
  3
ROUNDP
  1
ROUNDP
  0
LWPOLYLINE
  5
54
330
5B7A
100
AcDbEntity
  8
0
100
AcDbPolyline
 90
        3
 70
     0
 43
0.0
 10
0.0
 20
-0.25
 42
1.0
 10
0.0
 20
0.25
 42
1.0
 10
0.0
 20
-0.25
  0
ENDBLK
  5
5B7C
330
5B7A
100
AcDbEntity
  8
0
100
AcDbBlockEnd
  0
BLOCK
  5
5B7E
330
5B7D
100
AcDbEntity
  8
0
100
AcDbBlockBegin
  2
ANNULUSP
 70
     0
 10
0.0
 20
0.0
 30
0.0
  3
ANNULUSP
  1
ANNULUSP
  0
LWPOLYLINE
  5
5C
330
5B7D
100
AcDbEntity
  8
0
100
AcDbPolyline
 90
        3
 70
     0
 43
0.0
 10
0.0
 20
-0.25
 42
1.0
 10
0.0
 20
0.25
 42
1.0
 10
0.0
 20
-0.25
  0
ENDBLK
  5
5B7F
330
5B7D
100
AcDbEntity
  8
0
100
AcDbBlockEnd
  0
BLOCK
  5
5B81
330
5B80
100
AcDbEntity
  8
0
100
AcDbBlockBegin
  2
THERMALP
 70
     0
 10
0.0
 20
0.0
 30
0.0
  3
THERMALP
  1
THERMALP
  0
LWPOLYLINE
  5
64
330
5B80
100
AcDbEntity
  8
0
100
AcDbPolyline
 90
        2
 70
     0
 43
0.0
 10
-0.2379
 20
0.45
 10
0.2379
 20
0.45
  0
LWPOLYLINE
  5
68
330
5B80
100
AcDbEntity
  8
0
100
AcDbPolyline
 90
        2
 70
     0
 43
0.0
 10
0.2379
 20
0.425
 42
1.0
 10
0.2379
 20
0.475
  0
LWPOLYLINE
  5
6C
330
5B80
100
AcDbEntity
  8
0
100
AcDbPolyline
 90
        2
 70
     0
 43
0.0
 10
-0.2379
 20
0.475
 42
1.0
 10
-0.2379
 20
0.425
  0
LWPOLYLINE
  5
70
330
5B80
100
AcDbEntity
  8
0
100
AcDbPolyline
 90
        2
 70
     0
 43
0.0
 10
0.45
 20
0.2379
 10
0.45
 20
-0.2379
  0
LWPOLYLINE
  5
74
330
5B80
100
AcDbEntity
  8
0
100
AcDbPolyline
 90
        2
 70
     0
 43
0.0
 10
0.425
 20
-0.2379
 42
1.0
 10
0.475
 20
-0.2379
  0
LWPOLYLINE
  5
78
330
5B80
100
AcDbEntity
  8
0
100
AcDbPolyline
 90
        2
 70
     0
 43
0.0
 10
0.475
 20
0.2379
 42
1.0
 10
0.425
 20
0.2379
  0
LWPOLYLINE
  5
7C
330
5B80
100
AcDbEntity
  8
0
100
AcDbPolyline
 90
        2
 70
     0
 43
0.0
 10
0.2379
 20
-0.45
 10
-0.2379
 20
-0.45
  0
LWPOLYLINE
  5
80
330
5B80
100
AcDbEntity
  8
0
100
AcDbPolyline
 90
        2
 70
     0
 43
0.0
 10
-0.2379
 20
-0.425
 42
1.0
 10
-0.2379
 20
-0.475
  0
LWPOLYLINE
  5
84
330
5B80
100
AcDbEntity
  8
0
100
AcDbPolyline
 90
        2
 70
     0
 43
0.0
 10
0.2379
 20
-0.475
 42
1.0
 10
0.2379
 20
-0.425
  0
LWPOLYLINE
  5
88
330
5B80
100
AcDbEntity
  8
0
100
AcDbPolyline
 90
        2
 70
     0
 43
0.0
 10
-0.45
 20
-0.2379
 10
-0.45
 20
0.2379
  0
LWPOLYLINE
  5
8C
330
5B80
100
AcDbEntity
  8
0
100
AcDbPolyline
 90
        2
 70
     0
 43
0.0
 10
-0.425
 20
0.2379
 42
1.0
 10
-0.475
 20
0.2379
  0
LWPOLYLINE
  5
90
330
5B80
100
AcDbEntity
  8
0
100
AcDbPolyline
 90
        2
 70
     0
 43
0.0
 10
-0.475
 20
-0.2379
 42
1.0
 10
-0.425
 20
-0.2379
  0
ENDBLK
  5
5B82
330
5B80
100
AcDbEntity
  8
0
100
AcDbBlockEnd
  0
BLOCK
  5
5B84
330
5B83
100
AcDbEntity
  8
0
100
AcDbBlockBegin
  2
OCTAGONV
 70
     0
 10
0.0
 20
0.0
 30
0.0
  3
OCTAGONV
  1
OCTAGONV
  0
LWPOLYLINE
  5
97
330
5B83
100
AcDbEntity
  8
0
100
AcDbPolyline
 90
       10
 70
     0
 43
0.0
 10
-0.25
 20
-0.1036
 10
-0.25
 20
0.1036
 10
-0.1036
 20
0.25
 10
0.1036
 20
0.25
 10
0.25
 20
0.1036
 10
0.25
 20
-0.1036
 10
0.1036
 20
-0.25
 10
-0.1036
 20
-0.25
 10
-0.25
 20
-0.1036
 10
-0.25
 20
0.1036
  0
ENDBLK
  5
5B85
330
5B83
100
AcDbEntity
  8
0
100
AcDbBlockEnd
  0
BLOCK
  5
5B87
330
5B86
100
AcDbEntity
  8
0
100
AcDbBlockBegin
  2
SQUAREV
 70
     0
 10
0.0
 20
0.0
 30
0.0
  3
SQUAREV
  1
SQUAREV
  0
SOLID
  5
A6
330
5B86
100
AcDbEntity
  8
0
100
AcDbTrace
 10
-0.5
 20
-0.5
 30
0.0
 11
0.5
 21
-0.5
 31
0.0
 12
-0.5
 22
0.5
 32
0.0
 13
0.5
 23
0.5
 33
0.0
  0
ENDBLK
  5
5B88
330
5B86
100
AcDbEntity
  8
0
100
AcDbBlockEnd
  0
BLOCK
  5
5B8A
330
5B89
100
AcDbEntity
  8
0
100
AcDbBlockBegin
  2
ROUNDV
 70
     0
 10
0.0
 20
0.0
 30
0.0
  3
ROUNDV
  1
ROUNDV
  0
LWPOLYLINE
  5
AA
330
5B89
100
AcDbEntity
  8
0
100
AcDbPolyline
 90
        3
 70
     0
 43
0.0
 10
0.0
 20
-0.25
 42
1.0
 10
0.0
 20
0.25
 42
1.0
 10
0.0
 20
-0.25
  0
ENDBLK
  5
5B8B
330
5B89
100
AcDbEntity
  8
0
100
AcDbBlockEnd
  0
BLOCK
  5
5B8D
330
5B8C
100
AcDbEntity
  8
0
100
AcDbBlockBegin
  2
ANNULUSV
 70
     0
 10
0.0
 20
0.0
 30
0.0
  3
ANNULUSV
  1
ANNULUSV
  0
LWPOLYLINE
  5
B2
330
5B8C
100
AcDbEntity
  8
0
100
AcDbPolyline
 90
        3
 70
     0
 43
0.0
 10
0.0
 20
-0.25
 42
1.0
 10
0.0
 20
0.25
 42
1.0
 10
0.0
 20
-0.25
  0
ENDBLK
  5
5B8E
330
5B8C
100
AcDbEntity
  8
0
100
AcDbBlockEnd
  0
BLOCK
  5
5B90
330
5B8F
100
AcDbEntity
  8
0
100
AcDbBlockBegin
  2
THERMALV
 70
     0
 10
0.0
 20
0.0
 30
0.0
  3
THERMALV
  1
THERMALV
  0
LWPOLYLINE
  5
BA
330
5B8F
100
AcDbEntity
  8
0
100
AcDbPolyline
 90
        2
 70
     0
 43
0.0
 10
-0.2379
 20
0.45
 10
0.2379
 20
0.45
  0
LWPOLYLINE
  5
BE
330
5B8F
100
AcDbEntity
  8
0
100
AcDbPolyline
 90
        2
 70
     0
 43
0.0
 10
0.2379
 20
0.425
 42
1.0
 10
0.2379
 20
0.475
  0
LWPOLYLINE
  5
C2
330
5B8F
100
AcDbEntity
  8
0
100
AcDbPolyline
 90
        2
 70
     0
 43
0.0
 10
-0.2379
 20
0.475
 42
1.0
 10
-0.2379
 20
0.425
  0
LWPOLYLINE
  5
C6
330
5B8F
100
AcDbEntity
  8
0
100
AcDbPolyline
 90
        2
 70
     0
 43
0.0
 10
0.45
 20
0.2379
 10
0.45
 20
-0.2379
  0
LWPOLYLINE
  5
CA
330
5B8F
100
AcDbEntity
  8
0
100
AcDbPolyline
 90
        2
 70
     0
 43
0.0
 10
0.425
 20
-0.2379
 42
1.0
 10
0.475
 20
-0.2379
  0
LWPOLYLINE
  5
CE
330
5B8F
100
AcDbEntity
  8
0
100
AcDbPolyline
 90
        2
 70
     0
 43
0.0
 10
0.475
 20
0.2379
 42
1.0
 10
0.425
 20
0.2379
  0
LWPOLYLINE
  5
D2
330
5B8F
100
AcDbEntity
  8
0
100
AcDbPolyline
 90
        2
 70
     0
 43
0.0
 10
0.2379
 20
-0.45
 10
-0.2379
 20
-0.45
  0
LWPOLYLINE
  5
D6
330
5B8F
100
AcDbEntity
  8
0
100
AcDbPolyline
 90
        2
 70
     0
 43
0.0
 10
-0.2379
 20
-0.425
 42
1.0
 10
-0.2379
 20
-0.475
  0
LWPOLYLINE
  5
DA
330
5B8F
100
AcDbEntity
  8
0
100
AcDbPolyline
 90
        2
 70
     0
 43
0.0
 10
0.2379
 20
-0.475
 42
1.0
 10
0.2379
 20
-0.425
  0
LWPOLYLINE
  5
DE
330
5B8F
100
AcDbEntity
  8
0
100
AcDbPolyline
 90
        2
 70
     0
 43
0.0
 10
-0.45
 20
-0.2379
 10
-0.45
 20
0.2379
  0
LWPOLYLINE
  5
E2
330
5B8F
100
AcDbEntity
  8
0
100
AcDbPolyline
 90
        2
 70
     0
 43
0.0
 10
-0.425
 20
0.2379
 42
1.0
 10
-0.475
 20
0.2379
  0
LWPOLYLINE
  5
E6
330
5B8F
100
AcDbEntity
  8
0
100
AcDbPolyline
 90
        2
 70
     0
 43
0.0
 10
-0.475
 20
-0.2379
 42
1.0
 10
-0.425
 20
-0.2379
  0
ENDBLK
  5
5B91
330
5B8F
100
AcDbEntity
  8
0
100
AcDbBlockEnd
  0
BLOCK
  5
5B93
330
5B92
100
AcDbEntity
  8
0
100
AcDbBlockBegin
  2
RECT142240X223520R50
 70
     0
 10
0.0
 20
0.0
 30
0.0
  3
RECT142240X223520R50
  1
RECT142240X223520R50
  0
LWPOLYLINE
  5
ED
330
5B92
100
AcDbEntity
  8
0
100
AcDbPolyline
 90
        8
 70
     1
 43
0.0
 10
0.3334
 20
-0.4762
 10
0.3334
 20
0.4762
 42
0.4142
 10
0.2223
 20
0.5874
 10
-0.2223
 20
0.5874
 42
0.4142
 10
-0.3334
 20
0.4762
 10
-0.3334
 20
-0.4762
 42
0.4142
 10
-0.2223
 20
-0.5874
 10
0.2223
 20
-0.5874
 42
0.4142
  0
SOLID
  5
F7
330
5B92
100
AcDbEntity
  8
0
100
AcDbTrace
 10
-0.2477
 20
-0.5017
 30
0.0
 11
0.2477
 21
-0.5017
 31
0.0
 12
-0.2477
 22
0.5017
 32
0.0
 13
0.2477
 23
0.5017
 33
0.0
  0
ENDBLK
  5
5B94
330
5B92
100
AcDbEntity
  8
0
100
AcDbBlockEnd
  0
BLOCK
  5
5B96
330
5B95
100
AcDbEntity
  8
0
100
AcDbBlockBegin
  2
RECT174752X256032R50
 70
     0
 10
0.0
 20
0.0
 30
0.0
  3
RECT174752X256032R50
  1
RECT174752X256032R50
  0
LWPOLYLINE
  5
FB
330
5B95
100
AcDbEntity
  8
0
100
AcDbPolyline
 90
        8
 70
     1
 43
0.0
 10
0.4096
 20
-0.5271
 10
0.4096
 20
0.5271
 42
0.4142
 10
0.2731
 20
0.6636
 10
-0.2731
 20
0.6636
 42
0.4142
 10
-0.4096
 20
0.5271
 10
-0.4096
 20
-0.5271
 42
0.4142
 10
-0.2731
 20
-0.6636
 10
0.2731
 20
-0.6636
 42
0.4142
  0
SOLID
  5
105
330
5B95
100
AcDbEntity
  8
0
100
AcDbTrace
 10
-0.2984
 20
-0.5524
 30
0.0
 11
0.2984
 21
-0.5524
 31
0.0
 12
-0.2984
 22
0.5524
 32
0.0
 13
0.2984
 23
0.5524
 33
0.0
  0
ENDBLK
  5
5B97
330
5B95
100
AcDbEntity
  8
0
100
AcDbBlockEnd
  0
BLOCK
  5
5B9A
330
5B99
100
AcDbEntity
  8
0
100
AcDbBlockBegin
  2
*D15
 70
     1
 10
0.0
 20
0.0
 30
0.0
  3
*D15
  1
*D15
  0
LINE
  5
5B9C
330
5B99
100
AcDbEntity
  8
Measur
 62
     0
370
    -2
100
AcDbLine
 10
-0.0000000000000034
 20
16.86600000000001
 30
0.0
 11
0.0000000000000002
 21
31.856
 31
0.0
  0
LINE
  5
5B9D
330
5B99
100
AcDbEntity
  8
Measur
 62
     0
370
    -2
100
AcDbLine
 10
261.874
 20
23.21599999999999
 30
0.0
 11
261.874
 21
31.856
 31
0.0
  0
LINE
  5
5B9E
330
5B99
100
AcDbEntity
  8
Measur
 62
     0
370
    -2
100
AcDbLine
 10
2.0
 20
30.856
 30
0.0
 11
259.874
 21
30.856
 31
0.0
  0
SOLID
  5
5B9F
330
5B99
100
AcDbEntity
  8
Measur
 62
     0
100
AcDbTrace
 10
2.0
 20
31.18933333333333
 30
0.0
 11
2.0
 21
30.52266666666667
 31
0.0
 12
0.0
 22
30.856
 32
0.0
 13
0.0
 23
30.856
 33
0.0
  0
SOLID
  5
5BA0
330
5B99
100
AcDbEntity
  8
Measur
 62
     0
100
AcDbTrace
 10
259.874
 20
30.52266666666667
 30
0.0
 11
259.874
 21
31.18933333333333
 31
0.0
 12
261.874
 22
30.856
 32
0.0
 13
261.874
 23
30.856
 33
0.0
  0
MTEXT
  5
5BA1
330
5B99
100
AcDbEntity
  8
Measur
 62
     0
100
AcDbMText
 10
130.937
 20
32.356
 30
0.0
 40
2.0
 41
0.0
 46
0.0
 71
     5
 72
     1
  1
\A1;261.8740
 73
     1
 44
1.0
  0
POINT
  5
5BA2
330
5B99
100
AcDbEntity
  8
Defpoints
 62
     0
100
AcDbPoint
 10
-0.0000000000000036
 20
16.36600000000001
 30
0.0
  0
POINT
  5
5BA3
330
5B99
100
AcDbEntity
  8
Defpoints
 62
     0
100
AcDbPoint
 10
261.874
 20
22.71599999999999
 30
0.0
  0
POINT
  5
5BA4
330
5B99
100
AcDbEntity
  8
Defpoints
 62
     0
100
AcDbPoint
 10
261.874
 20
30.856
 30
0.0
  0
ENDBLK
  5
5B9B
330
5B99
100
AcDbEntity
  8
0
100
AcDbBlockEnd
  0
BLOCK
  5
5BA6
330
5BA5
100
AcDbEntity
  8
0
100
AcDbBlockBegin
  2
*D16
 70
     1
 10
0.0
 20
0.0
 30
0.0
  3
*D16
  1
*D16
  0
LINE
  5
5BA8
330
5BA5
100
AcDbEntity
  8
Measur
 62
     0
370
    -2
100
AcDbLine
 10
262.374
 20
22.71599999999999
 30
0.0
 11
267.4
 21
22.716
 31
0.0
  0
LINE
  5
5BA9
330
5BA5
100
AcDbEntity
  8
Measur
 62
     0
370
    -2
100
AcDbLine
 10
262.374
 20
2.396
 30
0.0
 11
267.4
 21
2.395999999999999
 31
0.0
  0
LINE
  5
5BAA
330
5BA5
100
AcDbEntity
  8
Measur
 62
     0
370
    -2
100
AcDbLine
 10
266.4
 20
20.716
 30
0.0
 11
266.4
 21
4.395999999999999
 31
0.0
  0
SOLID
  5
5BAB
330
5BA5
100
AcDbEntity
  8
Measur
 62
     0
100
AcDbTrace
 10
266.7333333333333
 20
20.716
 30
0.0
 11
266.0666666666667
 21
20.716
 31
0.0
 12
266.4
 22
22.716
 32
0.0
 13
266.4
 23
22.716
 33
0.0
  0
SOLID
  5
5BAC
330
5BA5
100
AcDbEntity
  8
Measur
 62
     0
100
AcDbTrace
 10
266.0666666666667
 20
4.395999999999999
 30
0.0
 11
266.7333333333333
 21
4.395999999999999
 31
0.0
 12
266.4
 22
2.395999999999999
 32
0.0
 13
266.4
 23
2.395999999999999
 33
0.0
  0
MTEXT
  5
5BAD
330
5BA5
100
AcDbEntity
  8
Measur
 62
     0
100
AcDbMText
 10
264.9
 20
12.556
 30
0.0
 40
2.0
 41
0.0
 46
0.0
 71
     5
 72
     1
  1
\A1;20.3200
 11
0.0
 21
1.0
 31
0.0
 73
     1
 44
1.0
  0
POINT
  5
5BAE
330
5BA5
100
AcDbEntity
  8
Defpoints
 62
     0
100
AcDbPoint
 10
261.874
 20
22.71599999999999
 30
0.0
  0
POINT
  5
5BAF
330
5BA5
100
AcDbEntity
  8
Defpoints
 62
     0
100
AcDbPoint
 10
261.874
 20
2.396
 30
0.0
  0
POINT
  5
5BB0
330
5BA5
100
AcDbEntity
  8
Defpoints
 62
     0
100
AcDbPoint
 10
266.4
 20
2.395999999999999
 30
0.0
  0
ENDBLK
  5
5BA7
330
5BA5
100
AcDbEntity
  8
0
100
AcDbBlockEnd
  0
BLOCK
  5
5BB2
330
5BB1
100
AcDbEntity
  8
0
100
AcDbBlockBegin
  2
*D17
 70
     1
 10
0.0
 20
0.0
 30
0.0
  3
*D17
  1
*D17
  0
LINE
  5
5BB4
330
5BB1
100
AcDbEntity
  8
Measur
 62
     0
370
    -2
100
AcDbLine
 10
211.6194761904762
 20
18.271
 30
0.0
 11
228.429
 21
18.271
 31
0.0
  0
MTEXT
  5
5BB5
330
5BB1
100
AcDbEntity
  8
Measur
 62
     0
100
AcDbMText
 10
219.0242380952381
 20
19.771
 30
0.0
 40
2.0
 41
0.0
 46
0.0
 71
     5
 72
     1
  1
\A1;RR1.6000
 73
     1
 44
1.0
  0
SOLID
  5
5BB6
330
5BB1
100
AcDbEntity
  8
Measur
 62
     0
100
AcDbTrace
 10
228.429
 20
17.93766666666667
 30
0.0
 11
228.429
 21
18.60433333333333
 31
0.0
 12
230.429
 22
18.271
 32
0.0
 13
230.429
 23
18.271
 33
0.0
  0
LINE
  5
5BB7
330
5BB1
100
AcDbEntity
  8
Measur
 62
     0
100
AcDbLine
 10
231.939
 20
18.271
 30
0.0
 11
232.119
 21
18.271
 31
0.0
  0
LINE
  5
5BB8
330
5BB1
100
AcDbEntity
  8
Measur
 62
     0
100
AcDbLine
 10
232.029
 20
18.181
 30
0.0
 11
232.029
 21
18.361
 31
0.0
  0
POINT
  5
5BB9
330
5BB1
100
AcDbEntity
  8
Defpoints
 62
     0
100
AcDbPoint
 10
230.429
 20
18.271
 30
0.0
  0
POINT
  5
5BBA
330
5BB1
100
AcDbEntity
  8
Defpoints
 62
     0
100
AcDbPoint
 10
232.029
 20
18.271
 30
0.0
  0
ENDBLK
  5
5BB3
330
5BB1
100
AcDbEntity
  8
0
100
AcDbBlockEnd
  0
BLOCK
  5
5BBC
330
5BBB
100
AcDbEntity
  8
0
100
AcDbBlockBegin
  2
*D18
 70
     1
 10
0.0
 20
0.0
 30
0.0
  3
*D18
  1
*D18
  0
LINE
  5
5BBE
330
5BBB
100
AcDbEntity
  8
Measur
 62
     0
370
    -2
100
AcDbLine
 10
211.6194761904762
 20
6.46
 30
0.0
 11
228.429
 21
6.46
 31
0.0
  0
MTEXT
  5
5BBF
330
5BBB
100
AcDbEntity
  8
Measur
 62
     0
100
AcDbMText
 10
219.0242380952381
 20
7.96
 30
0.0
 40
2.0
 41
0.0
 46
0.0
 71
     5
 72
     1
  1
\A1;RR1.6000
 73
     1
 44
1.0
  0
SOLID
  5
5BC0
330
5BBB
100
AcDbEntity
  8
Measur
 62
     0
100
AcDbTrace
 10
228.429
 20
6.126666666666667
 30
0.0
 11
228.429
 21
6.793333333333333
 31
0.0
 12
230.429
 22
6.46
 32
0.0
 13
230.429
 23
6.46
 33
0.0
  0
LINE
  5
5BC1
330
5BBB
100
AcDbEntity
  8
Measur
 62
     0
100
AcDbLine
 10
231.939
 20
6.46
 30
0.0
 11
232.119
 21
6.46
 31
0.0
  0
LINE
  5
5BC2
330
5BBB
100
AcDbEntity
  8
Measur
 62
     0
100
AcDbLine
 10
232.029
 20
6.37
 30
0.0
 11
232.029
 21
6.55
 31
0.0
  0
POINT
  5
5BC3
330
5BBB
100
AcDbEntity
  8
Defpoints
 62
     0
100
AcDbPoint
 10
230.429
 20
6.46
 30
0.0
  0
POINT
  5
5BC4
330
5BBB
100
AcDbEntity
  8
Defpoints
 62
     0
100
AcDbPoint
 10
232.029
 20
6.46
 30
0.0
  0
ENDBLK
  5
5BBD
330
5BBB
100
AcDbEntity
  8
0
100
AcDbBlockEnd
  0
BLOCK
  5
5BC6
330
5BC5
100
AcDbEntity
  8
0
100
AcDbBlockBegin
  2
*D19
 70
     1
 10
0.0
 20
0.0
 30
0.0
  3
*D19
  1
*D19
  0
LINE
  5
5BC8
330
5BC5
100
AcDbEntity
  8
Measur
 62
     0
370
    -2
100
AcDbLine
 10
232.029
 20
18.771
 30
0.0
 11
232.029
 21
27.856
 31
0.0
  0
LINE
  5
5BC9
330
5BC5
100
AcDbEntity
  8
Measur
 62
     0
370
    -2
100
AcDbLine
 10
261.874
 20
23.21599999999999
 30
0.0
 11
261.874
 21
27.856
 31
0.0
  0
LINE
  5
5BCA
330
5BC5
100
AcDbEntity
  8
Measur
 62
     0
370
    -2
100
AcDbLine
 10
234.029
 20
26.856
 30
0.0
 11
259.874
 21
26.856
 31
0.0
  0
SOLID
  5
5BCB
330
5BC5
100
AcDbEntity
  8
Measur
 62
     0
100
AcDbTrace
 10
234.029
 20
27.18933333333333
 30
0.0
 11
234.029
 21
26.52266666666667
 31
0.0
 12
232.029
 22
26.856
 32
0.0
 13
232.029
 23
26.856
 33
0.0
  0
SOLID
  5
5BCC
330
5BC5
100
AcDbEntity
  8
Measur
 62
     0
100
AcDbTrace
 10
259.874
 20
26.52266666666667
 30
0.0
 11
259.874
 21
27.18933333333333
 31
0.0
 12
261.874
 22
26.856
 32
0.0
 13
261.874
 23
26.856
 33
0.0
  0
MTEXT
  5
5BCD
330
5BC5
100
AcDbEntity
  8
Measur
 62
     0
100
AcDbMText
 10
246.9515
 20
28.356
 30
0.0
 40
2.0
 41
0.0
 46
0.0
 71
     5
 72
     1
  1
\A1;29.8450
 73
     1
 44
1.0
  0
POINT
  5
5BCE
330
5BC5
100
AcDbEntity
  8
Defpoints
 62
     0
100
AcDbPoint
 10
232.029
 20
18.271
 30
0.0
  0
POINT
  5
5BCF
330
5BC5
100
AcDbEntity
  8
Defpoints
 62
     0
100
AcDbPoint
 10
261.874
 20
22.71599999999999
 30
0.0
  0
POINT
  5
5BD0
330
5BC5
100
AcDbEntity
  8
Defpoints
 62
     0
100
AcDbPoint
 10
261.874
 20
26.856
 30
0.0
  0
ENDBLK
  5
5BC7
330
5BC5
100
AcDbEntity
  8
0
100
AcDbBlockEnd
  0
ENDSEC
  0
SECTION
  2
ENTITIES
  0
LWPOLYLINE
  5
107
330
5AAA
100
AcDbEntity
  8
Dimension
100
AcDbPolyline
 90
        2
 70
     0
 43
0.0
 10
6.349999999999998
 20
22.716
 10
261.874
 20
22.716
  0
LWPOLYLINE
  5
113
330
5AAA
100
AcDbEntity
  8
Dimension
100
AcDbPolyline
 90
        2
 70
     0
 43
0.0
 10
261.874
 20
22.716
 10
261.874
 20
2.396
  0
LWPOLYLINE
  5
11F
330
5AAA
100
AcDbEntity
  8
Dimension
100
AcDbPolyline
 90
        2
 70
     0
 43
0.0
 10
0.0
 20
16.366
 10
0.0
 20
9.0
  0
LWPOLYLINE
  5
12B
330
5AAA
100
AcDbEntity
  8
TOP_S
100
AcDbPolyline
 90
        2
 70
     0
 43
0.0
 10
211.455
 20
21.319
 10
211.455
 20
4.047
  0
LWPOLYLINE
  5
137
330
5AAA
100
AcDbEntity
  8
TOP_S
100
AcDbPolyline
 90
        2
 70
     0
 43
0.0
 10
228.473
 20
22.208
 10
228.473
 20
3.158
  0
LWPOLYLINE
  5
143
330
5AAA
100
AcDbEntity
  8
TOP_S
100
AcDbPolyline
 90
        2
 70
     0
 43
0.0
 10
226.441
 20
22.208
 10
226.441
 20
3.158
  0
LWPOLYLINE
  5
18B
330
5AAA
100
AcDbEntity
  8
Dimension
100
AcDbPolyline
 90
        2
 70
     0
 43
0.0
 10
6.603999999999999
 20
2.396
 10
261.874
 20
2.396
  0
LWPOLYLINE
  5
197
330
5AAA
100
AcDbEntity
  8
Dimension
100
AcDbPolyline
 90
        2
 70
     0
 43
0.0
 10
0.0
 20
9.0
 10
6.603999999999999
 20
2.396
  0
LWPOLYLINE
  5
1A3
330
5AAA
100
AcDbEntity
  8
Dimension
100
AcDbPolyline
 90
        2
 70
     0
 43
0.0
 10
6.349999999999998
 20
22.716
 10
0.0
 20
16.366
  0
LWPOLYLINE
  5
29F3
330
5AAA
100
AcDbEntity
  8
BOTTOM_S
100
AcDbPolyline
 90
        2
 70
     0
 43
0.0
 10
252.4544
 20
18.0345
 10
252.5773
 20
18.1573
  0
LWPOLYLINE
  5
29F7
330
5AAA
100
AcDbEntity
  8
BOTTOM_S
100
AcDbPolyline
 90
        2
 70
     0
 43
0.0
 10
252.5908
 20
18.1439
 42
1.0
 10
252.5638
 20
18.1708
  0
LWPOLYLINE
  5
29FB
330
5AAA
100
AcDbEntity
  8
BOTTOM_S
100
AcDbPolyline
 90
        2
 70
     0
 43
0.0
 10
252.4409
 20
18.0479
 42
1.0
 10
252.4679
 20
18.021
  0
LWPOLYLINE
  5
29FF
330
5AAA
100
AcDbEntity
  8
BOTTOM_S
100
AcDbPolyline
 90
        2
 70
     0
 43
0.0
 10
252.5773
 20
18.1573
 10
252.823
 20
18.1573
  0
LWPOLYLINE
  5
2A03
330
5AAA
100
AcDbEntity
  8
BOTTOM_S
100
AcDbPolyline
 90
        2
 70
     0
 43
0.0
 10
252.823
 20
18.1383
 42
1.0
 10
252.823
 20
18.1764
  0
LWPOLYLINE
  5
2A07
330
5AAA
100
AcDbEntity
  8
BOTTOM_S
100
AcDbPolyline
 90
        2
 70
     0
 43
0.0
 10
252.5773
 20
18.1764
 42
1.0
 10
252.5773
 20
18.1383
  0
LWPOLYLINE
  5
2A0B
330
5AAA
100
AcDbEntity
  8
BOTTOM_S
100
AcDbPolyline
 90
        2
 70
     0
 43
0.0
 10
252.823
 20
18.1573
 10
252.9459
 20
18.0345
  0
LWPOLYLINE
  5
2A0F
330
5AAA
100
AcDbEntity
  8
BOTTOM_S
100
AcDbPolyline
 90
        2
 70
     0
 43
0.0
 10
252.9324
 20
18.021
 42
1.0
 10
252.9594
 20
18.0479
  0
LWPOLYLINE
  5
2A13
330
5AAA
100
AcDbEntity
  8
BOTTOM_S
100
AcDbPolyline
 90
        2
 70
     0
 43
0.0
 10
252.8365
 20
18.1708
 42
1.0
 10
252.8096
 20
18.1439
  0
LWPOLYLINE
  5
2A17
330
5AAA
100
AcDbEntity
  8
BOTTOM_S
100
AcDbPolyline
 90
        2
 70
     0
 43
0.0
 10
252.9459
 20
18.0345
 10
252.9459
 20
17.543
  0
LWPOLYLINE
  5
2A1B
330
5AAA
100
AcDbEntity
  8
BOTTOM_S
100
AcDbPolyline
 90
        2
 70
     0
 43
0.0
 10
252.9269
 20
17.543
 42
1.0
 10
252.965
 20
17.543
  0
LWPOLYLINE
  5
2A1F
330
5AAA
100
AcDbEntity
  8
BOTTOM_S
100
AcDbPolyline
 90
        2
 70
     0
 43
0.0
 10
252.965
 20
18.0345
 42
1.0
 10
252.9269
 20
18.0345
  0
LWPOLYLINE
  5
2A23
330
5AAA
100
AcDbEntity
  8
BOTTOM_S
100
AcDbPolyline
 90
        2
 70
     0
 43
0.0
 10
252.9459
 20
17.543
 10
252.823
 20
17.4201
  0
LWPOLYLINE
  5
2A27
330
5AAA
100
AcDbEntity
  8
BOTTOM_S
100
AcDbPolyline
 90
        2
 70
     0
 43
0.0
 10
252.8096
 20
17.4336
 42
1.0
 10
252.8365
 20
17.4066
  0
LWPOLYLINE
  5
2A2B
330
5AAA
100
AcDbEntity
  8
BOTTOM_S
100
AcDbPolyline
 90
        2
 70
     0
 43
0.0
 10
252.9594
 20
17.5295
 42
1.0
 10
252.9324
 20
17.5564
  0
LWPOLYLINE
  5
2A2F
330
5AAA
100
AcDbEntity
  8
BOTTOM_S
100
AcDbPolyline
 90
        2
 70
     0
 43
0.0
 10
252.823
 20
17.4201
 10
252.5773
 20
17.4201
  0
LWPOLYLINE
  5
2A33
330
5AAA
100
AcDbEntity
  8
BOTTOM_S
100
AcDbPolyline
 90
        2
 70
     0
 43
0.0
 10
252.5773
 20
17.4391
 42
1.0
 10
252.5773
 20
17.401
  0
LWPOLYLINE
  5
2A37
330
5AAA
100
AcDbEntity
  8
BOTTOM_S
100
AcDbPolyline
 90
        2
 70
     0
 43
0.0
 10
252.823
 20
17.401
 42
1.0
 10
252.823
 20
17.4391
  0
LWPOLYLINE
  5
2A3B
330
5AAA
100
AcDbEntity
  8
BOTTOM_S
100
AcDbPolyline
 90
        2
 70
     0
 43
0.0
 10
252.5773
 20
17.4201
 10
252.4544
 20
17.543
  0
LWPOLYLINE
  5
2A3F
330
5AAA
100
AcDbEntity
  8
BOTTOM_S
100
AcDbPolyline
 90
        2
 70
     0
 43
0.0
 10
252.4679
 20
17.5564
 42
1.0
 10
252.4409
 20
17.5295
  0
LWPOLYLINE
  5
2A43
330
5AAA
100
AcDbEntity
  8
BOTTOM_S
100
AcDbPolyline
 90
        2
 70
     0
 43
0.0
 10
252.5638
 20
17.4066
 42
1.0
 10
252.5908
 20
17.4336
  0
LWPOLYLINE
  5
2A47
330
5AAA
100
AcDbEntity
  8
BOTTOM_S
100
AcDbPolyline
 90
        2
 70
     0
 43
0.0
 10
252.4544
 20
17.543
 10
252.4544
 20
17.7887
  0
LWPOLYLINE
  5
2A4B
330
5AAA
100
AcDbEntity
  8
BOTTOM_S
100
AcDbPolyline
 90
        2
 70
     0
 43
0.0
 10
252.4735
 20
17.7887
 42
1.0
 10
252.4354
 20
17.7887
  0
LWPOLYLINE
  5
2A4F
330
5AAA
100
AcDbEntity
  8
BOTTOM_S
100
AcDbPolyline
 90
        2
 70
     0
 43
0.0
 10
252.4354
 20
17.543
 42
1.0
 10
252.4735
 20
17.543
  0
LWPOLYLINE
  5
2A53
330
5AAA
100
AcDbEntity
  8
BOTTOM_S
100
AcDbPolyline
 90
        2
 70
     0
 43
0.0
 10
252.4544
 20
17.7887
 10
252.7002
 20
17.7887
  0
LWPOLYLINE
  5
2A57
330
5AAA
100
AcDbEntity
  8
BOTTOM_S
100
AcDbPolyline
 90
        2
 70
     0
 43
0.0
 10
252.7002
 20
17.7697
 42
1.0
 10
252.7002
 20
17.8078
  0
LWPOLYLINE
  5
2A5B
330
5AAA
100
AcDbEntity
  8
BOTTOM_S
100
AcDbPolyline
 90
        2
 70
     0
 43
0.0
 10
252.4544
 20
17.8078
 42
1.0
 10
252.4544
 20
17.7697
  0
LWPOLYLINE
  5
2A5F
330
5AAA
100
AcDbEntity
  8
BOTTOM_S
100
AcDbPolyline
 90
        2
 70
     0
 43
0.0
 10
252.1975
 20
17.4201
 10
252.1975
 20
18.1573
  0
LWPOLYLINE
  5
2A63
330
5AAA
100
AcDbEntity
  8
BOTTOM_S
100
AcDbPolyline
 90
        2
 70
     0
 43
0.0
 10
252.2165
 20
18.1573
 42
1.0
 10
252.1784
 20
18.1573
  0
LWPOLYLINE
  5
2A67
330
5AAA
100
AcDbEntity
  8
BOTTOM_S
100
AcDbPolyline
 90
        2
 70
     0
 43
0.0
 10
252.1784
 20
17.4201
 42
1.0
 10
252.2165
 20
17.4201
  0
LWPOLYLINE
  5
2A6B
330
5AAA
100
AcDbEntity
  8
BOTTOM_S
100
AcDbPolyline
 90
        2
 70
     0
 43
0.0
 10
252.1975
 20
18.1573
 10
251.706
 20
17.4201
  0
LWPOLYLINE
  5
2A6F
330
5AAA
100
AcDbEntity
  8
BOTTOM_S
100
AcDbPolyline
 90
        2
 70
     0
 43
0.0
 10
251.6901
 20
17.4307
 42
1.0
 10
251.7219
 20
17.4095
  0
LWPOLYLINE
  5
2A73
330
5AAA
100
AcDbEntity
  8
BOTTOM_S
100
AcDbPolyline
 90
        2
 70
     0
 43
0.0
 10
252.2133
 20
18.1468
 42
1.0
 10
252.1816
 20
18.1679
  0
LWPOLYLINE
  5
2A77
330
5AAA
100
AcDbEntity
  8
BOTTOM_S
100
AcDbPolyline
 90
        2
 70
     0
 43
0.0
 10
251.706
 20
17.4201
 10
251.706
 20
18.1573
  0
LWPOLYLINE
  5
2A7B
330
5AAA
100
AcDbEntity
  8
BOTTOM_S
100
AcDbPolyline
 90
        2
 70
     0
 43
0.0
 10
251.7251
 20
18.1573
 42
1.0
 10
251.687
 20
18.1573
  0
LWPOLYLINE
  5
2A7F
330
5AAA
100
AcDbEntity
  8
BOTTOM_S
100
AcDbPolyline
 90
        2
 70
     0
 43
0.0
 10
251.687
 20
17.4201
 42
1.0
 10
251.7251
 20
17.4201
  0
LWPOLYLINE
  5
2A83
330
5AAA
100
AcDbEntity
  8
BOTTOM_S
100
AcDbPolyline
 90
        2
 70
     0
 43
0.0
 10
251.4491
 20
18.1573
 10
251.4491
 20
17.4201
  0
LWPOLYLINE
  5
2A87
330
5AAA
100
AcDbEntity
  8
BOTTOM_S
100
AcDbPolyline
 90
        2
 70
     0
 43
0.0
 10
251.43
 20
17.4201
 42
1.0
 10
251.4681
 20
17.4201
  0
LWPOLYLINE
  5
2A8B
330
5AAA
100
AcDbEntity
  8
BOTTOM_S
100
AcDbPolyline
 90
        2
 70
     0
 43
0.0
 10
251.4681
 20
18.1573
 42
1.0
 10
251.43
 20
18.1573
  0
LWPOLYLINE
  5
2A8F
330
5AAA
100
AcDbEntity
  8
BOTTOM_S
100
AcDbPolyline
 90
        2
 70
     0
 43
0.0
 10
251.4491
 20
17.4201
 10
251.0805
 20
17.4201
  0
LWPOLYLINE
  5
2A93
330
5AAA
100
AcDbEntity
  8
BOTTOM_S
100
AcDbPolyline
 90
        2
 70
     0
 43
0.0
 10
251.0805
 20
17.4391
 42
1.0
 10
251.0805
 20
17.401
  0
LWPOLYLINE
  5
2A97
330
5AAA
100
AcDbEntity
  8
BOTTOM_S
100
AcDbPolyline
 90
        2
 70
     0
 43
0.0
 10
251.4491
 20
17.401
 42
1.0
 10
251.4491
 20
17.4391
  0
LWPOLYLINE
  5
2A9B
330
5AAA
100
AcDbEntity
  8
BOTTOM_S
100
AcDbPolyline
 90
        2
 70
     0
 43
0.0
 10
251.0805
 20
17.4201
 10
250.9576
 20
17.543
  0
LWPOLYLINE
  5
2A9F
330
5AAA
100
AcDbEntity
  8
BOTTOM_S
100
AcDbPolyline
 90
        2
 70
     0
 43
0.0
 10
250.9711
 20
17.5564
 42
1.0
 10
250.9441
 20
17.5295
  0
LWPOLYLINE
  5
2AA3
330
5AAA
100
AcDbEntity
  8
BOTTOM_S
100
AcDbPolyline
 90
        2
 70
     0
 43
0.0
 10
251.067
 20
17.4066
 42
1.0
 10
251.0939
 20
17.4336
  0
LWPOLYLINE
  5
2AA7
330
5AAA
100
AcDbEntity
  8
BOTTOM_S
100
AcDbPolyline
 90
        2
 70
     0
 43
0.0
 10
250.9576
 20
17.543
 10
250.9576
 20
18.0345
  0
LWPOLYLINE
  5
2AAB
330
5AAA
100
AcDbEntity
  8
BOTTOM_S
100
AcDbPolyline
 90
        2
 70
     0
 43
0.0
 10
250.9766
 20
18.0345
 42
1.0
 10
250.9385
 20
18.0345
  0
LWPOLYLINE
  5
2AAF
330
5AAA
100
AcDbEntity
  8
BOTTOM_S
100
AcDbPolyline
 90
        2
 70
     0
 43
0.0
 10
250.9385
 20
17.543
 42
1.0
 10
250.9766
 20
17.543
  0
LWPOLYLINE
  5
2AB3
330
5AAA
100
AcDbEntity
  8
BOTTOM_S
100
AcDbPolyline
 90
        2
 70
     0
 43
0.0
 10
250.9576
 20
18.0345
 10
251.0805
 20
18.1573
  0
LWPOLYLINE
  5
2AB7
330
5AAA
100
AcDbEntity
  8
BOTTOM_S
100
AcDbPolyline
 90
        2
 70
     0
 43
0.0
 10
251.0939
 20
18.1439
 42
1.0
 10
251.067
 20
18.1708
  0
LWPOLYLINE
  5
2ABB
330
5AAA
100
AcDbEntity
  8
BOTTOM_S
100
AcDbPolyline
 90
        2
 70
     0
 43
0.0
 10
250.9441
 20
18.0479
 42
1.0
 10
250.9711
 20
18.021
  0
LWPOLYLINE
  5
2ABF
330
5AAA
100
AcDbEntity
  8
BOTTOM_S
100
AcDbPolyline
 90
        2
 70
     0
 43
0.0
 10
251.0805
 20
18.1573
 10
251.4491
 20
18.1573
  0
LWPOLYLINE
  5
2AC3
330
5AAA
100
AcDbEntity
  8
BOTTOM_S
100
AcDbPolyline
 90
        2
 70
     0
 43
0.0
 10
251.4491
 20
18.1383
 42
1.0
 10
251.4491
 20
18.1764
  0
LWPOLYLINE
  5
2AC7
330
5AAA
100
AcDbEntity
  8
BOTTOM_S
100
AcDbPolyline
 90
        2
 70
     0
 43
0.0
 10
251.0805
 20
18.1764
 42
1.0
 10
251.0805
 20
18.1383
  0
LWPOLYLINE
  5
2ACB
330
5AAA
100
AcDbEntity
  8
BOTTOM_S
100
AcDbPolyline
 90
        2
 70
     0
 43
0.0
 10
260.6929
 20
18.1573
 10
260.6929
 20
17.4201
  0
LWPOLYLINE
  5
2ACF
330
5AAA
100
AcDbEntity
  8
BOTTOM_S
100
AcDbPolyline
 90
        2
 70
     0
 43
0.0
 10
260.6739
 20
17.4201
 42
1.0
 10
260.7119
 20
17.4201
  0
LWPOLYLINE
  5
2AD3
330
5AAA
100
AcDbEntity
  8
BOTTOM_S
100
AcDbPolyline
 90
        2
 70
     0
 43
0.0
 10
260.7119
 20
18.1573
 42
1.0
 10
260.6739
 20
18.1573
  0
LWPOLYLINE
  5
2AD7
330
5AAA
100
AcDbEntity
  8
BOTTOM_S
100
AcDbPolyline
 90
        2
 70
     0
 43
0.0
 10
260.6929
 20
17.4201
 10
260.3243
 20
17.4201
  0
LWPOLYLINE
  5
2ADB
330
5AAA
100
AcDbEntity
  8
BOTTOM_S
100
AcDbPolyline
 90
        2
 70
     0
 43
0.0
 10
260.3243
 20
17.4391
 42
1.0
 10
260.3243
 20
17.401
  0
LWPOLYLINE
  5
2ADF
330
5AAA
100
AcDbEntity
  8
BOTTOM_S
100
AcDbPolyline
 90
        2
 70
     0
 43
0.0
 10
260.6929
 20
17.401
 42
1.0
 10
260.6929
 20
17.4391
  0
LWPOLYLINE
  5
2AE3
330
5AAA
100
AcDbEntity
  8
BOTTOM_S
100
AcDbPolyline
 90
        2
 70
     0
 43
0.0
 10
260.3243
 20
17.4201
 10
260.2014
 20
17.543
  0
LWPOLYLINE
  5
2AE7
330
5AAA
100
AcDbEntity
  8
BOTTOM_S
100
AcDbPolyline
 90
        2
 70
     0
 43
0.0
 10
260.2149
 20
17.5564
 42
1.0
 10
260.1879
 20
17.5295
  0
LWPOLYLINE
  5
2AEB
330
5AAA
100
AcDbEntity
  8
BOTTOM_S
100
AcDbPolyline
 90
        2
 70
     0
 43
0.0
 10
260.3108
 20
17.4066
 42
1.0
 10
260.3378
 20
17.4336
  0
LWPOLYLINE
  5
2AEF
330
5AAA
100
AcDbEntity
  8
BOTTOM_S
100
AcDbPolyline
 90
        2
 70
     0
 43
0.0
 10
260.2014
 20
17.543
 10
260.2014
 20
18.0345
  0
LWPOLYLINE
  5
2AF3
330
5AAA
100
AcDbEntity
  8
BOTTOM_S
100
AcDbPolyline
 90
        2
 70
     0
 43
0.0
 10
260.2205
 20
18.0345
 42
1.0
 10
260.1824
 20
18.0345
  0
LWPOLYLINE
  5
2AF7
330
5AAA
100
AcDbEntity
  8
BOTTOM_S
100
AcDbPolyline
 90
        2
 70
     0
 43
0.0
 10
260.1824
 20
17.543
 42
1.0
 10
260.2205
 20
17.543
  0
LWPOLYLINE
  5
2AFB
330
5AAA
100
AcDbEntity
  8
BOTTOM_S
100
AcDbPolyline
 90
        2
 70
     0
 43
0.0
 10
260.2014
 20
18.0345
 10
260.3243
 20
18.1573
  0
LWPOLYLINE
  5
2AFF
330
5AAA
100
AcDbEntity
  8
BOTTOM_S
100
AcDbPolyline
 90
        2
 70
     0
 43
0.0
 10
260.3378
 20
18.1439
 42
1.0
 10
260.3108
 20
18.1708
  0
LWPOLYLINE
  5
2B03
330
5AAA
100
AcDbEntity
  8
BOTTOM_S
100
AcDbPolyline
 90
        2
 70
     0
 43
0.0
 10
260.1879
 20
18.0479
 42
1.0
 10
260.2149
 20
18.021
  0
LWPOLYLINE
  5
2B07
330
5AAA
100
AcDbEntity
  8
BOTTOM_S
100
AcDbPolyline
 90
        2
 70
     0
 43
0.0
 10
260.3243
 20
18.1573
 10
260.6929
 20
18.1573
  0
LWPOLYLINE
  5
2B0B
330
5AAA
100
AcDbEntity
  8
BOTTOM_S
100
AcDbPolyline
 90
        2
 70
     0
 43
0.0
 10
260.6929
 20
18.1383
 42
1.0
 10
260.6929
 20
18.1764
  0
LWPOLYLINE
  5
2B0F
330
5AAA
100
AcDbEntity
  8
BOTTOM_S
100
AcDbPolyline
 90
        2
 70
     0
 43
0.0
 10
260.3243
 20
18.1764
 42
1.0
 10
260.3243
 20
18.1383
  0
LWPOLYLINE
  5
2B13
330
5AAA
100
AcDbEntity
  8
BOTTOM_S
100
AcDbPolyline
 90
        2
 70
     0
 43
0.0
 10
259.9445
 20
17.543
 10
259.9445
 20
18.0345
  0
LWPOLYLINE
  5
2B17
330
5AAA
100
AcDbEntity
  8
BOTTOM_S
100
AcDbPolyline
 90
        2
 70
     0
 43
0.0
 10
259.9635
 20
18.0345
 42
1.0
 10
259.9254
 20
18.0345
  0
LWPOLYLINE
  5
2B1B
330
5AAA
100
AcDbEntity
  8
BOTTOM_S
100
AcDbPolyline
 90
        2
 70
     0
 43
0.0
 10
259.9254
 20
17.543
 42
1.0
 10
259.9635
 20
17.543
  0
LWPOLYLINE
  5
2B1F
330
5AAA
100
AcDbEntity
  8
BOTTOM_S
100
AcDbPolyline
 90
        2
 70
     0
 43
0.0
 10
259.9445
 20
18.0345
 10
259.8216
 20
18.1573
  0
LWPOLYLINE
  5
2B23
330
5AAA
100
AcDbEntity
  8
BOTTOM_S
100
AcDbPolyline
 90
        2
 70
     0
 43
0.0
 10
259.8351
 20
18.1708
 42
1.0
 10
259.8081
 20
18.1439
  0
LWPOLYLINE
  5
2B27
330
5AAA
100
AcDbEntity
  8
BOTTOM_S
100
AcDbPolyline
 90
        2
 70
     0
 43
0.0
 10
259.931
 20
18.021
 42
1.0
 10
259.958
 20
18.0479
  0
LWPOLYLINE
  5
2B2B
330
5AAA
100
AcDbEntity
  8
BOTTOM_S
100
AcDbPolyline
 90
        2
 70
     0
 43
0.0
 10
259.8216
 20
18.1573
 10
259.5759
 20
18.1573
  0
LWPOLYLINE
  5
2B2F
330
5AAA
100
AcDbEntity
  8
BOTTOM_S
100
AcDbPolyline
 90
        2
 70
     0
 43
0.0
 10
259.5759
 20
18.1764
 42
1.0
 10
259.5759
 20
18.1383
  0
LWPOLYLINE
  5
2B33
330
5AAA
100
AcDbEntity
  8
BOTTOM_S
100
AcDbPolyline
 90
        2
 70
     0
 43
0.0
 10
259.8216
 20
18.1383
 42
1.0
 10
259.8216
 20
18.1764
  0
LWPOLYLINE
  5
2B37
330
5AAA
100
AcDbEntity
  8
BOTTOM_S
100
AcDbPolyline
 90
        2
 70
     0
 43
0.0
 10
259.5759
 20
18.1573
 10
259.453
 20
18.0345
  0
LWPOLYLINE
  5
2B3B
330
5AAA
100
AcDbEntity
  8
BOTTOM_S
100
AcDbPolyline
 90
        2
 70
     0
 43
0.0
 10
259.4395
 20
18.0479
 42
1.0
 10
259.4665
 20
18.021
  0
LWPOLYLINE
  5
2B3F
330
5AAA
100
AcDbEntity
  8
BOTTOM_S
100
AcDbPolyline
 90
        2
 70
     0
 43
0.0
 10
259.5893
 20
18.1439
 42
1.0
 10
259.5624
 20
18.1708
  0
LWPOLYLINE
  5
2B43
330
5AAA
100
AcDbEntity
  8
BOTTOM_S
100
AcDbPolyline
 90
        2
 70
     0
 43
0.0
 10
259.453
 20
18.0345
 10
259.453
 20
17.543
  0
LWPOLYLINE
  5
2B47
330
5AAA
100
AcDbEntity
  8
BOTTOM_S
100
AcDbPolyline
 90
        2
 70
     0
 43
0.0
 10
259.434
 20
17.543
 42
1.0
 10
259.472
 20
17.543
  0
LWPOLYLINE
  5
2B4B
330
5AAA
100
AcDbEntity
  8
BOTTOM_S
100
AcDbPolyline
 90
        2
 70
     0
 43
0.0
 10
259.472
 20
18.0345
 42
1.0
 10
259.434
 20
18.0345
  0
LWPOLYLINE
  5
2B4F
330
5AAA
100
AcDbEntity
  8
BOTTOM_S
100
AcDbPolyline
 90
        2
 70
     0
 43
0.0
 10
259.453
 20
17.543
 10
259.5759
 20
17.4201
  0
LWPOLYLINE
  5
2B53
330
5AAA
100
AcDbEntity
  8
BOTTOM_S
100
AcDbPolyline
 90
        2
 70
     0
 43
0.0
 10
259.5624
 20
17.4066
 42
1.0
 10
259.5893
 20
17.4336
  0
LWPOLYLINE
  5
2B57
330
5AAA
100
AcDbEntity
  8
BOTTOM_S
100
AcDbPolyline
 90
        2
 70
     0
 43
0.0
 10
259.4665
 20
17.5564
 42
1.0
 10
259.4395
 20
17.5295
  0
LWPOLYLINE
  5
2B5B
330
5AAA
100
AcDbEntity
  8
BOTTOM_S
100
AcDbPolyline
 90
        2
 70
     0
 43
0.0
 10
259.5759
 20
17.4201
 10
259.8216
 20
17.4201
  0
LWPOLYLINE
  5
2B5F
330
5AAA
100
AcDbEntity
  8
BOTTOM_S
100
AcDbPolyline
 90
        2
 70
     0
 43
0.0
 10
259.8216
 20
17.401
 42
1.0
 10
259.8216
 20
17.4391
  0
LWPOLYLINE
  5
2B63
330
5AAA
100
AcDbEntity
  8
BOTTOM_S
100
AcDbPolyline
 90
        2
 70
     0
 43
0.0
 10
259.5759
 20
17.4391
 42
1.0
 10
259.5759
 20
17.401
  0
LWPOLYLINE
  5
2B67
330
5AAA
100
AcDbEntity
  8
BOTTOM_S
100
AcDbPolyline
 90
        2
 70
     0
 43
0.0
 10
259.8216
 20
17.4201
 10
259.9445
 20
17.543
  0
LWPOLYLINE
  5
2B6B
330
5AAA
100
AcDbEntity
  8
BOTTOM_S
100
AcDbPolyline
 90
        2
 70
     0
 43
0.0
 10
259.958
 20
17.5295
 42
1.0
 10
259.931
 20
17.5564
  0
LWPOLYLINE
  5
2B6F
330
5AAA
100
AcDbEntity
  8
BOTTOM_S
100
AcDbPolyline
 90
        2
 70
     0
 43
0.0
 10
259.8081
 20
17.4336
 42
1.0
 10
259.8351
 20
17.4066
  0
LWPOLYLINE
  5
2B73
330
5AAA
100
AcDbEntity
  8
BOTTOM_S
100
AcDbPolyline
 90
        2
 70
     0
 43
0.0
 10
259.6987
 20
17.6658
 10
259.453
 20
17.4201
  0
LWPOLYLINE
  5
2B77
330
5AAA
100
AcDbEntity
  8
BOTTOM_S
100
AcDbPolyline
 90
        2
 70
     0
 43
0.0
 10
259.4395
 20
17.4336
 42
1.0
 10
259.4665
 20
17.4066
  0
LWPOLYLINE
  5
2B7B
330
5AAA
100
AcDbEntity
  8
BOTTOM_S
100
AcDbPolyline
 90
        2
 70
     0
 43
0.0
 10
259.7122
 20
17.6524
 42
1.0
 10
259.6853
 20
17.6793
  0
LWPOLYLINE
  5
2B7F
330
5AAA
100
AcDbEntity
  8
BOTTOM_S
100
AcDbPolyline
 90
        2
 70
     0
 43
0.0
 10
252.9459
 20
15.2487
 10
252.4544
 20
15.2487
  0
LWPOLYLINE
  5
2B83
330
5AAA
100
AcDbEntity
  8
BOTTOM_S
100
AcDbPolyline
 90
        2
 70
     0
 43
0.0
 10
252.4544
 20
15.2678
 42
1.0
 10
252.4544
 20
15.2297
  0
LWPOLYLINE
  5
2B87
330
5AAA
100
AcDbEntity
  8
BOTTOM_S
100
AcDbPolyline
 90
        2
 70
     0
 43
0.0
 10
252.9459
 20
15.2297
 42
1.0
 10
252.9459
 20
15.2678
  0
LWPOLYLINE
  5
2B8B
330
5AAA
100
AcDbEntity
  8
BOTTOM_S
100
AcDbPolyline
 90
        2
 70
     0
 43
0.0
 10
252.7002
 20
15.4945
 10
252.7002
 20
15.003
  0
LWPOLYLINE
  5
2B8F
330
5AAA
100
AcDbEntity
  8
BOTTOM_S
100
AcDbPolyline
 90
        2
 70
     0
 43
0.0
 10
252.6811
 20
15.003
 42
1.0
 10
252.7192
 20
15.003
  0
LWPOLYLINE
  5
2B93
330
5AAA
100
AcDbEntity
  8
BOTTOM_S
100
AcDbPolyline
 90
        2
 70
     0
 43
0.0
 10
252.7192
 20
15.4945
 42
1.0
 10
252.6811
 20
15.4945
  0
LWPOLYLINE
  5
2B97
330
5AAA
100
AcDbEntity
  8
BOTTOM_S
100
AcDbPolyline
 90
        2
 70
     0
 43
0.0
 10
252.1975
 20
15.6173
 10
252.1975
 20
15.1258
  0
LWPOLYLINE
  5
2B9B
330
5AAA
100
AcDbEntity
  8
BOTTOM_S
100
AcDbPolyline
 90
        2
 70
     0
 43
0.0
 10
252.1784
 20
15.1258
 42
1.0
 10
252.2165
 20
15.1258
  0
LWPOLYLINE
  5
2B9F
330
5AAA
100
AcDbEntity
  8
BOTTOM_S
100
AcDbPolyline
 90
        2
 70
     0
 43
0.0
 10
252.2165
 20
15.6173
 42
1.0
 10
252.1784
 20
15.6173
  0
LWPOLYLINE
  5
2BA3
330
5AAA
100
AcDbEntity
  8
BOTTOM_S
100
AcDbPolyline
 90
        2
 70
     0
 43
0.0
 10
252.1975
 20
15.1258
 10
251.9517
 20
14.8801
  0
LWPOLYLINE
  5
2BA7
330
5AAA
100
AcDbEntity
  8
BOTTOM_S
100
AcDbPolyline
 90
        2
 70
     0
 43
0.0
 10
251.9383
 20
14.8936
 42
1.0
 10
251.9652
 20
14.8666
  0
LWPOLYLINE
  5
2BAB
330
5AAA
100
AcDbEntity
  8
BOTTOM_S
100
AcDbPolyline
 90
        2
 70
     0
 43
0.0
 10
252.211
 20
15.1124
 42
1.0
 10
252.184
 20
15.1393
  0
LWPOLYLINE
  5
2BAF
330
5AAA
100
AcDbEntity
  8
BOTTOM_S
100
AcDbPolyline
 90
        2
 70
     0
 43
0.0
 10
251.9517
 20
14.8801
 10
251.706
 20
15.1258
  0
LWPOLYLINE
  5
2BB3
330
5AAA
100
AcDbEntity
  8
BOTTOM_S
100
AcDbPolyline
 90
        2
 70
     0
 43
0.0
 10
251.7195
 20
15.1393
 42
1.0
 10
251.6925
 20
15.1124
  0
LWPOLYLINE
  5
2BB7
330
5AAA
100
AcDbEntity
  8
BOTTOM_S
100
AcDbPolyline
 90
        2
 70
     0
 43
0.0
 10
251.9383
 20
14.8666
 42
1.0
 10
251.9652
 20
14.8936
  0
LWPOLYLINE
  5
2BBB
330
5AAA
100
AcDbEntity
  8
BOTTOM_S
100
AcDbPolyline
 90
        2
 70
     0
 43
0.0
 10
251.706
 20
15.1258
 10
251.706
 20
15.6173
  0
LWPOLYLINE
  5
2BBF
330
5AAA
100
AcDbEntity
  8
BOTTOM_S
100
AcDbPolyline
 90
        2
 70
     0
 43
0.0
 10
251.7251
 20
15.6173
 42
1.0
 10
251.687
 20
15.6173
  0
LWPOLYLINE
  5
2BC3
330
5AAA
100
AcDbEntity
  8
BOTTOM_S
100
AcDbPolyline
 90
        2
 70
     0
 43
0.0
 10
251.687
 20
15.1258
 42
1.0
 10
251.7251
 20
15.1258
  0
LWPOLYLINE
  5
2BC7
330
5AAA
100
AcDbEntity
  8
BOTTOM_S
100
AcDbPolyline
 90
        2
 70
     0
 43
0.0
 10
252.8237
 20
6.5223
 10
252.9465
 20
6.3995
  0
LWPOLYLINE
  5
2BCB
330
5AAA
100
AcDbEntity
  8
BOTTOM_S
100
AcDbPolyline
 90
        2
 70
     0
 43
0.0
 10
252.9331
 20
6.386
 42
1.0
 10
252.96
 20
6.4129
  0
LWPOLYLINE
  5
2BCF
330
5AAA
100
AcDbEntity
  8
BOTTOM_S
100
AcDbPolyline
 90
        2
 70
     0
 43
0.0
 10
252.8371
 20
6.5358
 42
1.0
 10
252.8102
 20
6.5089
  0
LWPOLYLINE
  5
2BD3
330
5AAA
100
AcDbEntity
  8
BOTTOM_S
100
AcDbPolyline
 90
        2
 70
     0
 43
0.0
 10
252.9465
 20
6.3995
 10
252.9465
 20
6.1537
  0
LWPOLYLINE
  5
2BD7
330
5AAA
100
AcDbEntity
  8
BOTTOM_S
100
AcDbPolyline
 90
        2
 70
     0
 43
0.0
 10
252.9275
 20
6.1537
 42
1.0
 10
252.9656
 20
6.1537
  0
LWPOLYLINE
  5
2BDB
330
5AAA
100
AcDbEntity
  8
BOTTOM_S
100
AcDbPolyline
 90
        2
 70
     0
 43
0.0
 10
252.9656
 20
6.3995
 42
1.0
 10
252.9275
 20
6.3995
  0
LWPOLYLINE
  5
2BDF
330
5AAA
100
AcDbEntity
  8
BOTTOM_S
100
AcDbPolyline
 90
        2
 70
     0
 43
0.0
 10
252.9465
 20
6.1537
 10
252.8237
 20
6.0309
  0
LWPOLYLINE
  5
2BE3
330
5AAA
100
AcDbEntity
  8
BOTTOM_S
100
AcDbPolyline
 90
        2
 70
     0
 43
0.0
 10
252.8102
 20
6.0443
 42
1.0
 10
252.8371
 20
6.0174
  0
LWPOLYLINE
  5
2BE7
330
5AAA
100
AcDbEntity
  8
BOTTOM_S
100
AcDbPolyline
 90
        2
 70
     0
 43
0.0
 10
252.96
 20
6.1403
 42
1.0
 10
252.9331
 20
6.1672
  0
LWPOLYLINE
  5
2BEB
330
5AAA
100
AcDbEntity
  8
BOTTOM_S
100
AcDbPolyline
 90
        2
 70
     0
 43
0.0
 10
252.8237
 20
6.0309
 10
252.7008
 20
6.0309
  0
LWPOLYLINE
  5
2BEF
330
5AAA
100
AcDbEntity
  8
BOTTOM_S
100
AcDbPolyline
 90
        2
 70
     0
 43
0.0
 10
252.7008
 20
6.0499
 42
1.0
 10
252.7008
 20
6.0118
  0
LWPOLYLINE
  5
2BF3
330
5AAA
100
AcDbEntity
  8
BOTTOM_S
100
AcDbPolyline
 90
        2
 70
     0
 43
0.0
 10
252.8237
 20
6.0118
 42
1.0
 10
252.8237
 20
6.0499
  0
LWPOLYLINE
  5
2BF7
330
5AAA
100
AcDbEntity
  8
BOTTOM_S
100
AcDbPolyline
 90
        2
 70
     0
 43
0.0
 10
252.7008
 20
6.0309
 10
252.5779
 20
6.1537
  0
LWPOLYLINE
  5
2BFB
330
5AAA
100
AcDbEntity
  8
BOTTOM_S
100
AcDbPolyline
 90
        2
 70
     0
 43
0.0
 10
252.5914
 20
6.1672
 42
1.0
 10
252.5644
 20
6.1403
  0
LWPOLYLINE
  5
2BFF
330
5AAA
100
AcDbEntity
  8
BOTTOM_S
100
AcDbPolyline
 90
        2
 70
     0
 43
0.0
 10
252.6873
 20
6.0174
 42
1.0
 10
252.7143
 20
6.0443
  0
LWPOLYLINE
  5
2C03
330
5AAA
100
AcDbEntity
  8
BOTTOM_S
100
AcDbPolyline
 90
        2
 70
     0
 43
0.0
 10
252.5779
 20
6.1537
 10
252.5779
 20
6.3995
  0
LWPOLYLINE
  5
2C07
330
5AAA
100
AcDbEntity
  8
BOTTOM_S
100
AcDbPolyline
 90
        2
 70
     0
 43
0.0
 10
252.597
 20
6.3995
 42
1.0
 10
252.5589
 20
6.3995
  0
LWPOLYLINE
  5
2C0B
330
5AAA
100
AcDbEntity
  8
BOTTOM_S
100
AcDbPolyline
 90
        2
 70
     0
 43
0.0
 10
252.5589
 20
6.1537
 42
1.0
 10
252.597
 20
6.1537
  0
LWPOLYLINE
  5
2C0F
330
5AAA
100
AcDbEntity
  8
BOTTOM_S
100
AcDbPolyline
 90
        2
 70
     0
 43
0.0
 10
252.5779
 20
6.3995
 10
252.455
 20
6.5223
  0
LWPOLYLINE
  5
2C13
330
5AAA
100
AcDbEntity
  8
BOTTOM_S
100
AcDbPolyline
 90
        2
 70
     0
 43
0.0
 10
252.4685
 20
6.5358
 42
1.0
 10
252.4416
 20
6.5089
  0
LWPOLYLINE
  5
2C17
330
5AAA
100
AcDbEntity
  8
BOTTOM_S
100
AcDbPolyline
 90
        2
 70
     0
 43
0.0
 10
252.5644
 20
6.386
 42
1.0
 10
252.5914
 20
6.4129
  0
LWPOLYLINE
  5
2C1B
330
5AAA
100
AcDbEntity
  8
BOTTOM_S
100
AcDbPolyline
 90
        2
 70
     0
 43
0.0
 10
252.455
 20
6.5223
 10
252.3322
 20
6.5223
  0
LWPOLYLINE
  5
2C1F
330
5AAA
100
AcDbEntity
  8
BOTTOM_S
100
AcDbPolyline
 90
        2
 70
     0
 43
0.0
 10
252.3322
 20
6.541399999999999
 42
1.0
 10
252.3322
 20
6.5033
  0
LWPOLYLINE
  5
2C23
330
5AAA
100
AcDbEntity
  8
BOTTOM_S
100
AcDbPolyline
 90
        2
 70
     0
 43
0.0
 10
252.455
 20
6.5033
 42
1.0
 10
252.455
 20
6.541399999999999
  0
LWPOLYLINE
  5
2C27
330
5AAA
100
AcDbEntity
  8
BOTTOM_S
100
AcDbPolyline
 90
        2
 70
     0
 43
0.0
 10
252.3322
 20
6.5223
 10
252.2093
 20
6.3995
  0
LWPOLYLINE
  5
2C2B
330
5AAA
100
AcDbEntity
  8
BOTTOM_S
100
AcDbPolyline
 90
        2
 70
     0
 43
0.0
 10
252.1958
 20
6.4129
 42
1.0
 10
252.2228
 20
6.386
  0
LWPOLYLINE
  5
2C2F
330
5AAA
100
AcDbEntity
  8
BOTTOM_S
100
AcDbPolyline
 90
        2
 70
     0
 43
0.0
 10
252.3456
 20
6.5089
 42
1.0
 10
252.3187
 20
6.5358
  0
LWPOLYLINE
  5
2C33
330
5AAA
100
AcDbEntity
  8
BOTTOM_S
100
AcDbPolyline
 90
        2
 70
     0
 43
0.0
 10
252.2093
 20
6.3995
 10
252.2093
 20
6.1537
  0
LWPOLYLINE
  5
2C37
330
5AAA
100
AcDbEntity
  8
BOTTOM_S
100
AcDbPolyline
 90
        2
 70
     0
 43
0.0
 10
252.1903
 20
6.1537
 42
1.0
 10
252.2284
 20
6.1537
  0
LWPOLYLINE
  5
2C3B
330
5AAA
100
AcDbEntity
  8
BOTTOM_S
100
AcDbPolyline
 90
        2
 70
     0
 43
0.0
 10
252.2284
 20
6.3995
 42
1.0
 10
252.1903
 20
6.3995
  0
LWPOLYLINE
  5
2C3F
330
5AAA
100
AcDbEntity
  8
BOTTOM_S
100
AcDbPolyline
 90
        2
 70
     0
 43
0.0
 10
252.2093
 20
6.1537
 10
252.3322
 20
6.0309
  0
LWPOLYLINE
  5
2C43
330
5AAA
100
AcDbEntity
  8
BOTTOM_S
100
AcDbPolyline
 90
        2
 70
     0
 43
0.0
 10
252.3187
 20
6.0174
 42
1.0
 10
252.3456
 20
6.0443
  0
LWPOLYLINE
  5
2C47
330
5AAA
100
AcDbEntity
  8
BOTTOM_S
100
AcDbPolyline
 90
        2
 70
     0
 43
0.0
 10
252.2228
 20
6.1672
 42
1.0
 10
252.1958
 20
6.1403
  0
LWPOLYLINE
  5
2C4B
330
5AAA
100
AcDbEntity
  8
BOTTOM_S
100
AcDbPolyline
 90
        2
 70
     0
 43
0.0
 10
252.2093
 20
7.270799999999999
 10
252.2093
 20
6.7793
  0
LWPOLYLINE
  5
2C4F
330
5AAA
100
AcDbEntity
  8
BOTTOM_S
100
AcDbPolyline
 90
        2
 70
     0
 43
0.0
 10
252.1903
 20
6.7793
 42
1.0
 10
252.2284
 20
6.7793
  0
LWPOLYLINE
  5
2C53
330
5AAA
100
AcDbEntity
  8
BOTTOM_S
100
AcDbPolyline
 90
        2
 70
     0
 43
0.0
 10
252.2284
 20
7.270799999999999
 42
1.0
 10
252.1903
 20
7.270799999999999
  0
LWPOLYLINE
  5
2C57
330
5AAA
100
AcDbEntity
  8
BOTTOM_S
100
AcDbPolyline
 90
        2
 70
     0
 43
0.0
 10
252.2093
 20
6.7793
 10
252.7008
 20
7.270799999999999
  0
LWPOLYLINE
  5
2C5B
330
5AAA
100
AcDbEntity
  8
BOTTOM_S
100
AcDbPolyline
 90
        2
 70
     0
 43
0.0
 10
252.7143
 20
7.2573
 42
1.0
 10
252.6873
 20
7.2842
  0
LWPOLYLINE
  5
2C5F
330
5AAA
100
AcDbEntity
  8
BOTTOM_S
100
AcDbPolyline
 90
        2
 70
     0
 43
0.0
 10
252.1958
 20
6.7927
 42
1.0
 10
252.2228
 20
6.7658
  0
LWPOLYLINE
  5
2C63
330
5AAA
100
AcDbEntity
  8
BOTTOM_S
100
AcDbPolyline
 90
        2
 70
     0
 43
0.0
 10
252.7008
 20
7.270799999999999
 10
252.8237
 20
7.270799999999999
  0
LWPOLYLINE
  5
2C67
330
5AAA
100
AcDbEntity
  8
BOTTOM_S
100
AcDbPolyline
 90
        2
 70
     0
 43
0.0
 10
252.8237
 20
7.2517
 42
1.0
 10
252.8237
 20
7.2898
  0
LWPOLYLINE
  5
2C6B
330
5AAA
100
AcDbEntity
  8
BOTTOM_S
100
AcDbPolyline
 90
        2
 70
     0
 43
0.0
 10
252.7008
 20
7.2898
 42
1.0
 10
252.7008
 20
7.2517
  0
LWPOLYLINE
  5
2C6F
330
5AAA
100
AcDbEntity
  8
BOTTOM_S
100
AcDbPolyline
 90
        2
 70
     0
 43
0.0
 10
252.8237
 20
7.270799999999999
 10
252.9465
 20
7.1479
  0
LWPOLYLINE
  5
2C73
330
5AAA
100
AcDbEntity
  8
BOTTOM_S
100
AcDbPolyline
 90
        2
 70
     0
 43
0.0
 10
252.9331
 20
7.1344
 42
1.0
 10
252.96
 20
7.1614
  0
LWPOLYLINE
  5
2C77
330
5AAA
100
AcDbEntity
  8
BOTTOM_S
100
AcDbPolyline
 90
        2
 70
     0
 43
0.0
 10
252.8371
 20
7.2842
 42
1.0
 10
252.8102
 20
7.2573
  0
LWPOLYLINE
  5
2C7B
330
5AAA
100
AcDbEntity
  8
BOTTOM_S
100
AcDbPolyline
 90
        2
 70
     0
 43
0.0
 10
252.9465
 20
7.1479
 10
252.9465
 20
6.9021
  0
LWPOLYLINE
  5
2C7F
330
5AAA
100
AcDbEntity
  8
BOTTOM_S
100
AcDbPolyline
 90
        2
 70
     0
 43
0.0
 10
252.9275
 20
6.9021
 42
1.0
 10
252.9656
 20
6.9021
  0
LWPOLYLINE
  5
2C83
330
5AAA
100
AcDbEntity
  8
BOTTOM_S
100
AcDbPolyline
 90
        2
 70
     0
 43
0.0
 10
252.9656
 20
7.1479
 42
1.0
 10
252.9275
 20
7.1479
  0
LWPOLYLINE
  5
2C87
330
5AAA
100
AcDbEntity
  8
BOTTOM_S
100
AcDbPolyline
 90
        2
 70
     0
 43
0.0
 10
252.9465
 20
6.9021
 10
252.8237
 20
6.7793
  0
LWPOLYLINE
  5
2C8B
330
5AAA
100
AcDbEntity
  8
BOTTOM_S
100
AcDbPolyline
 90
        2
 70
     0
 43
0.0
 10
252.8102
 20
6.7927
 42
1.0
 10
252.8371
 20
6.7658
  0
LWPOLYLINE
  5
2C8F
330
5AAA
100
AcDbEntity
  8
BOTTOM_S
100
AcDbPolyline
 90
        2
 70
     0
 43
0.0
 10
252.96
 20
6.8887
 42
1.0
 10
252.9331
 20
6.9156
  0
LWPOLYLINE
  5
2C93
330
5AAA
100
AcDbEntity
  8
BOTTOM_S
100
AcDbPolyline
 90
        2
 70
     0
 43
0.0
 10
252.3322
 20
7.5277
 10
252.8237
 20
7.5277
  0
LWPOLYLINE
  5
2C97
330
5AAA
100
AcDbEntity
  8
BOTTOM_S
100
AcDbPolyline
 90
        2
 70
     0
 43
0.0
 10
252.8237
 20
7.508599999999999
 42
1.0
 10
252.8237
 20
7.5467
  0
LWPOLYLINE
  5
2C9B
330
5AAA
100
AcDbEntity
  8
BOTTOM_S
100
AcDbPolyline
 90
        2
 70
     0
 43
0.0
 10
252.3322
 20
7.5467
 42
1.0
 10
252.3322
 20
7.508599999999999
  0
LWPOLYLINE
  5
2C9F
330
5AAA
100
AcDbEntity
  8
BOTTOM_S
100
AcDbPolyline
 90
        2
 70
     0
 43
0.0
 10
252.8237
 20
7.5277
 10
252.9465
 20
7.6506
  0
LWPOLYLINE
  5
2CA3
330
5AAA
100
AcDbEntity
  8
BOTTOM_S
100
AcDbPolyline
 90
        2
 70
     0
 43
0.0
 10
252.96
 20
7.6371
 42
1.0
 10
252.9331
 20
7.664
  0
LWPOLYLINE
  5
2CA7
330
5AAA
100
AcDbEntity
  8
BOTTOM_S
100
AcDbPolyline
 90
        2
 70
     0
 43
0.0
 10
252.8102
 20
7.5412
 42
1.0
 10
252.8371
 20
7.5142
  0
LWPOLYLINE
  5
2CAB
330
5AAA
100
AcDbEntity
  8
BOTTOM_S
100
AcDbPolyline
 90
        2
 70
     0
 43
0.0
 10
252.9465
 20
7.6506
 10
252.9465
 20
7.8963
  0
LWPOLYLINE
  5
2CAF
330
5AAA
100
AcDbEntity
  8
BOTTOM_S
100
AcDbPolyline
 90
        2
 70
     0
 43
0.0
 10
252.9656
 20
7.8963
 42
1.0
 10
252.9275
 20
7.8963
  0
LWPOLYLINE
  5
2CB3
330
5AAA
100
AcDbEntity
  8
BOTTOM_S
100
AcDbPolyline
 90
        2
 70
     0
 43
0.0
 10
252.9275
 20
7.6506
 42
1.0
 10
252.9656
 20
7.6506
  0
LWPOLYLINE
  5
2CB7
330
5AAA
100
AcDbEntity
  8
BOTTOM_S
100
AcDbPolyline
 90
        2
 70
     0
 43
0.0
 10
252.9465
 20
7.8963
 10
252.8237
 20
8.0192
  0
LWPOLYLINE
  5
2CBB
330
5AAA
100
AcDbEntity
  8
BOTTOM_S
100
AcDbPolyline
 90
        2
 70
     0
 43
0.0
 10
252.8371
 20
8.0326
 42
1.0
 10
252.8102
 20
8.0057
  0
LWPOLYLINE
  5
2CBF
330
5AAA
100
AcDbEntity
  8
BOTTOM_S
100
AcDbPolyline
 90
        2
 70
     0
 43
0.0
 10
252.9331
 20
7.8828
 42
1.0
 10
252.96
 20
7.909800000000001
  0
LWPOLYLINE
  5
2CC3
330
5AAA
100
AcDbEntity
  8
BOTTOM_S
100
AcDbPolyline
 90
        2
 70
     0
 43
0.0
 10
252.8237
 20
8.0192
 10
252.3322
 20
8.0192
  0
LWPOLYLINE
  5
2CC7
330
5AAA
100
AcDbEntity
  8
BOTTOM_S
100
AcDbPolyline
 90
        2
 70
     0
 43
0.0
 10
252.3322
 20
8.0382
 42
1.0
 10
252.3322
 20
8.0001
  0
LWPOLYLINE
  5
2CCB
330
5AAA
100
AcDbEntity
  8
BOTTOM_S
100
AcDbPolyline
 90
        2
 70
     0
 43
0.0
 10
252.8237
 20
8.0001
 42
1.0
 10
252.8237
 20
8.0382
  0
LWPOLYLINE
  5
2CCF
330
5AAA
100
AcDbEntity
  8
BOTTOM_S
100
AcDbPolyline
 90
        2
 70
     0
 43
0.0
 10
252.3322
 20
8.0192
 10
252.2093
 20
7.8963
  0
LWPOLYLINE
  5
2CD3
330
5AAA
100
AcDbEntity
  8
BOTTOM_S
100
AcDbPolyline
 90
        2
 70
     0
 43
0.0
 10
252.1958
 20
7.909800000000001
 42
1.0
 10
252.2228
 20
7.8828
  0
LWPOLYLINE
  5
2CD7
330
5AAA
100
AcDbEntity
  8
BOTTOM_S
100
AcDbPolyline
 90
        2
 70
     0
 43
0.0
 10
252.3456
 20
8.0057
 42
1.0
 10
252.3187
 20
8.0326
  0
LWPOLYLINE
  5
2CDB
330
5AAA
100
AcDbEntity
  8
BOTTOM_S
100
AcDbPolyline
 90
        2
 70
     0
 43
0.0
 10
252.2093
 20
7.8963
 10
252.2093
 20
7.6506
  0
LWPOLYLINE
  5
2CDF
330
5AAA
100
AcDbEntity
  8
BOTTOM_S
100
AcDbPolyline
 90
        2
 70
     0
 43
0.0
 10
252.1903
 20
7.6506
 42
1.0
 10
252.2284
 20
7.6506
  0
LWPOLYLINE
  5
2CE3
330
5AAA
100
AcDbEntity
  8
BOTTOM_S
100
AcDbPolyline
 90
        2
 70
     0
 43
0.0
 10
252.2284
 20
7.8963
 42
1.0
 10
252.1903
 20
7.8963
  0
LWPOLYLINE
  5
2CE7
330
5AAA
100
AcDbEntity
  8
BOTTOM_S
100
AcDbPolyline
 90
        2
 70
     0
 43
0.0
 10
252.2093
 20
7.6506
 10
252.3322
 20
7.5277
  0
LWPOLYLINE
  5
2CEB
330
5AAA
100
AcDbEntity
  8
BOTTOM_S
100
AcDbPolyline
 90
        2
 70
     0
 43
0.0
 10
252.3187
 20
7.5142
 42
1.0
 10
252.3456
 20
7.5412
  0
LWPOLYLINE
  5
2CEF
330
5AAA
100
AcDbEntity
  8
BOTTOM_S
100
AcDbPolyline
 90
        2
 70
     0
 43
0.0
 10
252.2228
 20
7.664
 42
1.0
 10
252.1958
 20
7.6371
  0
LWPOLYLINE
  5
2CF3
330
5AAA
100
AcDbEntity
  8
BOTTOM_S
100
AcDbPolyline
 90
        2
 70
     0
 43
0.0
 10
252.3322
 20
7.5277
 10
252.8237
 20
8.0192
  0
LWPOLYLINE
  5
2CF7
330
5AAA
100
AcDbEntity
  8
BOTTOM_S
100
AcDbPolyline
 90
        2
 70
     0
 43
0.0
 10
252.8371
 20
8.0057
 42
1.0
 10
252.8102
 20
8.0326
  0
LWPOLYLINE
  5
2CFB
330
5AAA
100
AcDbEntity
  8
BOTTOM_S
100
AcDbPolyline
 90
        2
 70
     0
 43
0.0
 10
252.3187
 20
7.5412
 42
1.0
 10
252.3456
 20
7.5142
  0
LWPOLYLINE
  5
2CFF
330
5AAA
100
AcDbEntity
  8
BOTTOM_S
100
AcDbPolyline
 90
        2
 70
     0
 43
0.0
 10
259.9357
 20
6.5223
 10
260.0585
 20
6.3995
  0
LWPOLYLINE
  5
2D03
330
5AAA
100
AcDbEntity
  8
BOTTOM_S
100
AcDbPolyline
 90
        2
 70
     0
 43
0.0
 10
260.0451
 20
6.386
 42
1.0
 10
260.072
 20
6.4129
  0
LWPOLYLINE
  5
2D07
330
5AAA
100
AcDbEntity
  8
BOTTOM_S
100
AcDbPolyline
 90
        2
 70
     0
 43
0.0
 10
259.9491
 20
6.5358
 42
1.0
 10
259.9222
 20
6.5089
  0
LWPOLYLINE
  5
2D0B
330
5AAA
100
AcDbEntity
  8
BOTTOM_S
100
AcDbPolyline
 90
        2
 70
     0
 43
0.0
 10
260.0585
 20
6.3995
 10
260.0585
 20
6.1537
  0
LWPOLYLINE
  5
2D0F
330
5AAA
100
AcDbEntity
  8
BOTTOM_S
100
AcDbPolyline
 90
        2
 70
     0
 43
0.0
 10
260.0395
 20
6.1537
 42
1.0
 10
260.0776
 20
6.1537
  0
LWPOLYLINE
  5
2D13
330
5AAA
100
AcDbEntity
  8
BOTTOM_S
100
AcDbPolyline
 90
        2
 70
     0
 43
0.0
 10
260.0776
 20
6.3995
 42
1.0
 10
260.0395
 20
6.3995
  0
LWPOLYLINE
  5
2D17
330
5AAA
100
AcDbEntity
  8
BOTTOM_S
100
AcDbPolyline
 90
        2
 70
     0
 43
0.0
 10
260.0585
 20
6.1537
 10
259.9357
 20
6.0309
  0
LWPOLYLINE
  5
2D1B
330
5AAA
100
AcDbEntity
  8
BOTTOM_S
100
AcDbPolyline
 90
        2
 70
     0
 43
0.0
 10
259.9222
 20
6.0443
 42
1.0
 10
259.9491
 20
6.0174
  0
LWPOLYLINE
  5
2D1F
330
5AAA
100
AcDbEntity
  8
BOTTOM_S
100
AcDbPolyline
 90
        2
 70
     0
 43
0.0
 10
260.072
 20
6.1403
 42
1.0
 10
260.0451
 20
6.1672
  0
LWPOLYLINE
  5
2D23
330
5AAA
100
AcDbEntity
  8
BOTTOM_S
100
AcDbPolyline
 90
        2
 70
     0
 43
0.0
 10
259.9357
 20
6.0309
 10
259.8128
 20
6.0309
  0
LWPOLYLINE
  5
2D27
330
5AAA
100
AcDbEntity
  8
BOTTOM_S
100
AcDbPolyline
 90
        2
 70
     0
 43
0.0
 10
259.8128
 20
6.0499
 42
1.0
 10
259.8128
 20
6.0118
  0
LWPOLYLINE
  5
2D2B
330
5AAA
100
AcDbEntity
  8
BOTTOM_S
100
AcDbPolyline
 90
        2
 70
     0
 43
0.0
 10
259.9357
 20
6.0118
 42
1.0
 10
259.9357
 20
6.0499
  0
LWPOLYLINE
  5
2D2F
330
5AAA
100
AcDbEntity
  8
BOTTOM_S
100
AcDbPolyline
 90
        2
 70
     0
 43
0.0
 10
259.8128
 20
6.0309
 10
259.6899
 20
6.1537
  0
LWPOLYLINE
  5
2D33
330
5AAA
100
AcDbEntity
  8
BOTTOM_S
100
AcDbPolyline
 90
        2
 70
     0
 43
0.0
 10
259.7034
 20
6.1672
 42
1.0
 10
259.6764
 20
6.1403
  0
LWPOLYLINE
  5
2D37
330
5AAA
100
AcDbEntity
  8
BOTTOM_S
100
AcDbPolyline
 90
        2
 70
     0
 43
0.0
 10
259.7993
 20
6.0174
 42
1.0
 10
259.8263
 20
6.0443
  0
LWPOLYLINE
  5
2D3B
330
5AAA
100
AcDbEntity
  8
BOTTOM_S
100
AcDbPolyline
 90
        2
 70
     0
 43
0.0
 10
259.6899
 20
6.1537
 10
259.6899
 20
6.3995
  0
LWPOLYLINE
  5
2D3F
330
5AAA
100
AcDbEntity
  8
BOTTOM_S
100
AcDbPolyline
 90
        2
 70
     0
 43
0.0
 10
259.709
 20
6.3995
 42
1.0
 10
259.6709
 20
6.3995
  0
LWPOLYLINE
  5
2D43
330
5AAA
100
AcDbEntity
  8
BOTTOM_S
100
AcDbPolyline
 90
        2
 70
     0
 43
0.0
 10
259.6709
 20
6.1537
 42
1.0
 10
259.709
 20
6.1537
  0
LWPOLYLINE
  5
2D47
330
5AAA
100
AcDbEntity
  8
BOTTOM_S
100
AcDbPolyline
 90
        2
 70
     0
 43
0.0
 10
259.6899
 20
6.3995
 10
259.567
 20
6.5223
  0
LWPOLYLINE
  5
2D4B
330
5AAA
100
AcDbEntity
  8
BOTTOM_S
100
AcDbPolyline
 90
        2
 70
     0
 43
0.0
 10
259.5805
 20
6.5358
 42
1.0
 10
259.5536
 20
6.5089
  0
LWPOLYLINE
  5
2D4F
330
5AAA
100
AcDbEntity
  8
BOTTOM_S
100
AcDbPolyline
 90
        2
 70
     0
 43
0.0
 10
259.6764
 20
6.386
 42
1.0
 10
259.7034
 20
6.4129
  0
LWPOLYLINE
  5
2D53
330
5AAA
100
AcDbEntity
  8
BOTTOM_S
100
AcDbPolyline
 90
        2
 70
     0
 43
0.0
 10
259.567
 20
6.5223
 10
259.4442
 20
6.5223
  0
LWPOLYLINE
  5
2D57
330
5AAA
100
AcDbEntity
  8
BOTTOM_S
100
AcDbPolyline
 90
        2
 70
     0
 43
0.0
 10
259.4442
 20
6.541399999999999
 42
1.0
 10
259.4442
 20
6.5033
  0
LWPOLYLINE
  5
2D5B
330
5AAA
100
AcDbEntity
  8
BOTTOM_S
100
AcDbPolyline
 90
        2
 70
     0
 43
0.0
 10
259.567
 20
6.5033
 42
1.0
 10
259.567
 20
6.541399999999999
  0
LWPOLYLINE
  5
2D5F
330
5AAA
100
AcDbEntity
  8
BOTTOM_S
100
AcDbPolyline
 90
        2
 70
     0
 43
0.0
 10
259.4442
 20
6.5223
 10
259.3213
 20
6.3995
  0
LWPOLYLINE
  5
2D63
330
5AAA
100
AcDbEntity
  8
BOTTOM_S
100
AcDbPolyline
 90
        2
 70
     0
 43
0.0
 10
259.3078
 20
6.4129
 42
1.0
 10
259.3348
 20
6.386
  0
LWPOLYLINE
  5
2D67
330
5AAA
100
AcDbEntity
  8
BOTTOM_S
100
AcDbPolyline
 90
        2
 70
     0
 43
0.0
 10
259.4576
 20
6.5089
 42
1.0
 10
259.4307
 20
6.5358
  0
LWPOLYLINE
  5
2D6B
330
5AAA
100
AcDbEntity
  8
BOTTOM_S
100
AcDbPolyline
 90
        2
 70
     0
 43
0.0
 10
259.3213
 20
6.3995
 10
259.3213
 20
6.1537
  0
LWPOLYLINE
  5
2D6F
330
5AAA
100
AcDbEntity
  8
BOTTOM_S
100
AcDbPolyline
 90
        2
 70
     0
 43
0.0
 10
259.3023
 20
6.1537
 42
1.0
 10
259.3403
 20
6.1537
  0
LWPOLYLINE
  5
2D73
330
5AAA
100
AcDbEntity
  8
BOTTOM_S
100
AcDbPolyline
 90
        2
 70
     0
 43
0.0
 10
259.3403
 20
6.3995
 42
1.0
 10
259.3023
 20
6.3995
  0
LWPOLYLINE
  5
2D77
330
5AAA
100
AcDbEntity
  8
BOTTOM_S
100
AcDbPolyline
 90
        2
 70
     0
 43
0.0
 10
259.3213
 20
6.1537
 10
259.4442
 20
6.0309
  0
LWPOLYLINE
  5
2D7B
330
5AAA
100
AcDbEntity
  8
BOTTOM_S
100
AcDbPolyline
 90
        2
 70
     0
 43
0.0
 10
259.4307
 20
6.0174
 42
1.0
 10
259.4576
 20
6.0443
  0
LWPOLYLINE
  5
2D7F
330
5AAA
100
AcDbEntity
  8
BOTTOM_S
100
AcDbPolyline
 90
        2
 70
     0
 43
0.0
 10
259.3348
 20
6.1672
 42
1.0
 10
259.3078
 20
6.1403
  0
LWPOLYLINE
  5
2D83
330
5AAA
100
AcDbEntity
  8
BOTTOM_S
100
AcDbPolyline
 90
        2
 70
     0
 43
0.0
 10
259.8128
 20
6.7793
 10
260.0585
 20
7.024999999999999
  0
LWPOLYLINE
  5
2D87
330
5AAA
100
AcDbEntity
  8
BOTTOM_S
100
AcDbPolyline
 90
        2
 70
     0
 43
0.0
 10
260.072
 20
7.0115
 42
1.0
 10
260.0451
 20
7.0385
  0
LWPOLYLINE
  5
2D8B
330
5AAA
100
AcDbEntity
  8
BOTTOM_S
100
AcDbPolyline
 90
        2
 70
     0
 43
0.0
 10
259.7993
 20
6.7927
 42
1.0
 10
259.8263
 20
6.7658
  0
LWPOLYLINE
  5
2D8F
330
5AAA
100
AcDbEntity
  8
BOTTOM_S
100
AcDbPolyline
 90
        2
 70
     0
 43
0.0
 10
260.0585
 20
7.024999999999999
 10
259.3213
 20
7.024999999999999
  0
LWPOLYLINE
  5
2D93
330
5AAA
100
AcDbEntity
  8
BOTTOM_S
100
AcDbPolyline
 90
        2
 70
     0
 43
0.0
 10
259.3213
 20
7.0441
 42
1.0
 10
259.3213
 20
7.006
  0
LWPOLYLINE
  5
2D97
330
5AAA
100
AcDbEntity
  8
BOTTOM_S
100
AcDbPolyline
 90
        2
 70
     0
 43
0.0
 10
260.0585
 20
7.006
 42
1.0
 10
260.0585
 20
7.0441
  0
LWPOLYLINE
  5
2D9B
330
5AAA
100
AcDbEntity
  8
BOTTOM_S
100
AcDbPolyline
 90
        2
 70
     0
 43
0.0
 10
259.3213
 20
6.7793
 10
259.3213
 20
7.270799999999999
  0
LWPOLYLINE
  5
2D9F
330
5AAA
100
AcDbEntity
  8
BOTTOM_S
100
AcDbPolyline
 90
        2
 70
     0
 43
0.0
 10
259.3403
 20
7.270799999999999
 42
1.0
 10
259.3023
 20
7.270799999999999
  0
LWPOLYLINE
  5
2DA3
330
5AAA
100
AcDbEntity
  8
BOTTOM_S
100
AcDbPolyline
 90
        2
 70
     0
 43
0.0
 10
259.3023
 20
6.7793
 42
1.0
 10
259.3403
 20
6.7793
  0
LWPOLYLINE
  5
2DA7
330
5AAA
100
AcDbEntity
  8
BOTTOM_S
100
AcDbPolyline
 90
        2
 70
     0
 43
0.0
 10
260.0585
 20
8.0192
 10
260.0585
 20
7.5277
  0
LWPOLYLINE
  5
2DAB
330
5AAA
100
AcDbEntity
  8
BOTTOM_S
100
AcDbPolyline
 90
        2
 70
     0
 43
0.0
 10
260.0395
 20
7.5277
 42
1.0
 10
260.0776
 20
7.5277
  0
LWPOLYLINE
  5
2DAF
330
5AAA
100
AcDbEntity
  8
BOTTOM_S
100
AcDbPolyline
 90
        2
 70
     0
 43
0.0
 10
260.0776
 20
8.0192
 42
1.0
 10
260.0395
 20
8.0192
  0
LWPOLYLINE
  5
2DB3
330
5AAA
100
AcDbEntity
  8
BOTTOM_S
100
AcDbPolyline
 90
        2
 70
     0
 43
0.0
 10
260.0585
 20
7.5277
 10
259.6899
 20
7.5277
  0
LWPOLYLINE
  5
2DB7
330
5AAA
100
AcDbEntity
  8
BOTTOM_S
100
AcDbPolyline
 90
        2
 70
     0
 43
0.0
 10
259.6899
 20
7.5467
 42
1.0
 10
259.6899
 20
7.508599999999999
  0
LWPOLYLINE
  5
2DBB
330
5AAA
100
AcDbEntity
  8
BOTTOM_S
100
AcDbPolyline
 90
        2
 70
     0
 43
0.0
 10
260.0585
 20
7.508599999999999
 42
1.0
 10
260.0585
 20
7.5467
  0
LWPOLYLINE
  5
2DBF
330
5AAA
100
AcDbEntity
  8
BOTTOM_S
100
AcDbPolyline
 90
        2
 70
     0
 43
0.0
 10
259.6899
 20
7.5277
 10
259.8128
 20
7.7734
  0
LWPOLYLINE
  5
2DC3
330
5AAA
100
AcDbEntity
  8
BOTTOM_S
100
AcDbPolyline
 90
        2
 70
     0
 43
0.0
 10
259.8298
 20
7.7649
 42
1.0
 10
259.7957
 20
7.7819
  0
LWPOLYLINE
  5
2DC7
330
5AAA
100
AcDbEntity
  8
BOTTOM_S
100
AcDbPolyline
 90
        2
 70
     0
 43
0.0
 10
259.6729
 20
7.5362
 42
1.0
 10
259.707
 20
7.5192
  0
LWPOLYLINE
  5
2DCB
330
5AAA
100
AcDbEntity
  8
BOTTOM_S
100
AcDbPolyline
 90
        2
 70
     0
 43
0.0
 10
259.8128
 20
7.7734
 10
259.8128
 20
7.8963
  0
LWPOLYLINE
  5
2DCF
330
5AAA
100
AcDbEntity
  8
BOTTOM_S
100
AcDbPolyline
 90
        2
 70
     0
 43
0.0
 10
259.8318
 20
7.8963
 42
1.0
 10
259.7937
 20
7.8963
  0
LWPOLYLINE
  5
2DD3
330
5AAA
100
AcDbEntity
  8
BOTTOM_S
100
AcDbPolyline
 90
        2
 70
     0
 43
0.0
 10
259.7937
 20
7.7734
 42
1.0
 10
259.8318
 20
7.7734
  0
LWPOLYLINE
  5
2DD7
330
5AAA
100
AcDbEntity
  8
BOTTOM_S
100
AcDbPolyline
 90
        2
 70
     0
 43
0.0
 10
259.8128
 20
7.8963
 10
259.6899
 20
8.0192
  0
LWPOLYLINE
  5
2DDB
330
5AAA
100
AcDbEntity
  8
BOTTOM_S
100
AcDbPolyline
 90
        2
 70
     0
 43
0.0
 10
259.7034
 20
8.0326
 42
1.0
 10
259.6764
 20
8.0057
  0
LWPOLYLINE
  5
2DDF
330
5AAA
100
AcDbEntity
  8
BOTTOM_S
100
AcDbPolyline
 90
        2
 70
     0
 43
0.0
 10
259.7993
 20
7.8828
 42
1.0
 10
259.8263
 20
7.909800000000001
  0
LWPOLYLINE
  5
2DE3
330
5AAA
100
AcDbEntity
  8
BOTTOM_S
100
AcDbPolyline
 90
        2
 70
     0
 43
0.0
 10
259.6899
 20
8.0192
 10
259.4442
 20
8.0192
  0
LWPOLYLINE
  5
2DE7
330
5AAA
100
AcDbEntity
  8
BOTTOM_S
100
AcDbPolyline
 90
        2
 70
     0
 43
0.0
 10
259.4442
 20
8.0382
 42
1.0
 10
259.4442
 20
8.0001
  0
LWPOLYLINE
  5
2DEB
330
5AAA
100
AcDbEntity
  8
BOTTOM_S
100
AcDbPolyline
 90
        2
 70
     0
 43
0.0
 10
259.6899
 20
8.0001
 42
1.0
 10
259.6899
 20
8.0382
  0
LWPOLYLINE
  5
2DEF
330
5AAA
100
AcDbEntity
  8
BOTTOM_S
100
AcDbPolyline
 90
        2
 70
     0
 43
0.0
 10
259.4442
 20
8.0192
 10
259.3213
 20
7.8963
  0
LWPOLYLINE
  5
2DF3
330
5AAA
100
AcDbEntity
  8
BOTTOM_S
100
AcDbPolyline
 90
        2
 70
     0
 43
0.0
 10
259.3078
 20
7.909800000000001
 42
1.0
 10
259.3348
 20
7.8828
  0
LWPOLYLINE
  5
2DF7
330
5AAA
100
AcDbEntity
  8
BOTTOM_S
100
AcDbPolyline
 90
        2
 70
     0
 43
0.0
 10
259.4576
 20
8.0057
 42
1.0
 10
259.4307
 20
8.0326
  0
LWPOLYLINE
  5
2DFB
330
5AAA
100
AcDbEntity
  8
BOTTOM_S
100
AcDbPolyline
 90
        2
 70
     0
 43
0.0
 10
259.3213
 20
7.8963
 10
259.3213
 20
7.6506
  0
LWPOLYLINE
  5
2DFF
330
5AAA
100
AcDbEntity
  8
BOTTOM_S
100
AcDbPolyline
 90
        2
 70
     0
 43
0.0
 10
259.3023
 20
7.6506
 42
1.0
 10
259.3403
 20
7.6506
  0
LWPOLYLINE
  5
2E03
330
5AAA
100
AcDbEntity
  8
BOTTOM_S
100
AcDbPolyline
 90
        2
 70
     0
 43
0.0
 10
259.3403
 20
7.8963
 42
1.0
 10
259.3023
 20
7.8963
  0
LWPOLYLINE
  5
2E07
330
5AAA
100
AcDbEntity
  8
BOTTOM_S
100
AcDbPolyline
 90
        2
 70
     0
 43
0.0
 10
259.3213
 20
7.6506
 10
259.4442
 20
7.5277
  0
LWPOLYLINE
  5
2E0B
330
5AAA
100
AcDbEntity
  8
BOTTOM_S
100
AcDbPolyline
 90
        2
 70
     0
 43
0.0
 10
259.4307
 20
7.5142
 42
1.0
 10
259.4576
 20
7.5412
  0
LWPOLYLINE
  5
2E0F
330
5AAA
100
AcDbEntity
  8
BOTTOM_S
100
AcDbPolyline
 90
        2
 70
     0
 43
0.0
 10
259.3348
 20
7.664
 42
1.0
 10
259.3078
 20
7.6371
  0
LWPOLYLINE
  5
2E13
330
5AAA
100
AcDbEntity
  8
BOTTOM_S
100
AcDbPolyline
 90
        2
 70
     0
 43
0.0
 10
252.8237
 20
9.3163
 10
252.9465
 20
9.1935
  0
LWPOLYLINE
  5
2E17
330
5AAA
100
AcDbEntity
  8
BOTTOM_S
100
AcDbPolyline
 90
        2
 70
     0
 43
0.0
 10
252.9331
 20
9.18
 42
1.0
 10
252.96
 20
9.2069
  0
LWPOLYLINE
  5
2E1B
330
5AAA
100
AcDbEntity
  8
BOTTOM_S
100
AcDbPolyline
 90
        2
 70
     0
 43
0.0
 10
252.8371
 20
9.3298
 42
1.0
 10
252.8102
 20
9.3029
  0
LWPOLYLINE
  5
2E1F
330
5AAA
100
AcDbEntity
  8
BOTTOM_S
100
AcDbPolyline
 90
        2
 70
     0
 43
0.0
 10
252.9465
 20
9.1935
 10
252.9465
 20
8.9477
  0
LWPOLYLINE
  5
2E23
330
5AAA
100
AcDbEntity
  8
BOTTOM_S
100
AcDbPolyline
 90
        2
 70
     0
 43
0.0
 10
252.9275
 20
8.9477
 42
1.0
 10
252.9656
 20
8.9477
  0
LWPOLYLINE
  5
2E27
330
5AAA
100
AcDbEntity
  8
BOTTOM_S
100
AcDbPolyline
 90
        2
 70
     0
 43
0.0
 10
252.9656
 20
9.1935
 42
1.0
 10
252.9275
 20
9.1935
  0
LWPOLYLINE
  5
2E2B
330
5AAA
100
AcDbEntity
  8
BOTTOM_S
100
AcDbPolyline
 90
        2
 70
     0
 43
0.0
 10
252.9465
 20
8.9477
 10
252.8237
 20
8.8249
  0
LWPOLYLINE
  5
2E2F
330
5AAA
100
AcDbEntity
  8
BOTTOM_S
100
AcDbPolyline
 90
        2
 70
     0
 43
0.0
 10
252.8102
 20
8.8383
 42
1.0
 10
252.8371
 20
8.811399999999999
  0
LWPOLYLINE
  5
2E33
330
5AAA
100
AcDbEntity
  8
BOTTOM_S
100
AcDbPolyline
 90
        2
 70
     0
 43
0.0
 10
252.96
 20
8.9343
 42
1.0
 10
252.9331
 20
8.9612
  0
LWPOLYLINE
  5
2E37
330
5AAA
100
AcDbEntity
  8
BOTTOM_S
100
AcDbPolyline
 90
        2
 70
     0
 43
0.0
 10
252.8237
 20
8.8249
 10
252.7008
 20
8.8249
  0
LWPOLYLINE
  5
2E3B
330
5AAA
100
AcDbEntity
  8
BOTTOM_S
100
AcDbPolyline
 90
        2
 70
     0
 43
0.0
 10
252.7008
 20
8.8439
 42
1.0
 10
252.7008
 20
8.8058
  0
LWPOLYLINE
  5
2E3F
330
5AAA
100
AcDbEntity
  8
BOTTOM_S
100
AcDbPolyline
 90
        2
 70
     0
 43
0.0
 10
252.8237
 20
8.8058
 42
1.0
 10
252.8237
 20
8.8439
  0
LWPOLYLINE
  5
2E43
330
5AAA
100
AcDbEntity
  8
BOTTOM_S
100
AcDbPolyline
 90
        2
 70
     0
 43
0.0
 10
252.7008
 20
8.8249
 10
252.5779
 20
8.9477
  0
LWPOLYLINE
  5
2E47
330
5AAA
100
AcDbEntity
  8
BOTTOM_S
100
AcDbPolyline
 90
        2
 70
     0
 43
0.0
 10
252.5914
 20
8.9612
 42
1.0
 10
252.5644
 20
8.9343
  0
LWPOLYLINE
  5
2E4B
330
5AAA
100
AcDbEntity
  8
BOTTOM_S
100
AcDbPolyline
 90
        2
 70
     0
 43
0.0
 10
252.6873
 20
8.811399999999999
 42
1.0
 10
252.7143
 20
8.8383
  0
LWPOLYLINE
  5
2E4F
330
5AAA
100
AcDbEntity
  8
BOTTOM_S
100
AcDbPolyline
 90
        2
 70
     0
 43
0.0
 10
252.5779
 20
8.9477
 10
252.5779
 20
9.1935
  0
LWPOLYLINE
  5
2E53
330
5AAA
100
AcDbEntity
  8
BOTTOM_S
100
AcDbPolyline
 90
        2
 70
     0
 43
0.0
 10
252.597
 20
9.1935
 42
1.0
 10
252.5589
 20
9.1935
  0
LWPOLYLINE
  5
2E57
330
5AAA
100
AcDbEntity
  8
BOTTOM_S
100
AcDbPolyline
 90
        2
 70
     0
 43
0.0
 10
252.5589
 20
8.9477
 42
1.0
 10
252.597
 20
8.9477
  0
LWPOLYLINE
  5
2E5B
330
5AAA
100
AcDbEntity
  8
BOTTOM_S
100
AcDbPolyline
 90
        2
 70
     0
 43
0.0
 10
252.5779
 20
9.1935
 10
252.455
 20
9.3163
  0
LWPOLYLINE
  5
2E5F
330
5AAA
100
AcDbEntity
  8
BOTTOM_S
100
AcDbPolyline
 90
        2
 70
     0
 43
0.0
 10
252.4685
 20
9.3298
 42
1.0
 10
252.4416
 20
9.3029
  0
LWPOLYLINE
  5
2E63
330
5AAA
100
AcDbEntity
  8
BOTTOM_S
100
AcDbPolyline
 90
        2
 70
     0
 43
0.0
 10
252.5644
 20
9.18
 42
1.0
 10
252.5914
 20
9.2069
  0
LWPOLYLINE
  5
2E67
330
5AAA
100
AcDbEntity
  8
BOTTOM_S
100
AcDbPolyline
 90
        2
 70
     0
 43
0.0
 10
252.455
 20
9.3163
 10
252.3322
 20
9.3163
  0
LWPOLYLINE
  5
2E6B
330
5AAA
100
AcDbEntity
  8
BOTTOM_S
100
AcDbPolyline
 90
        2
 70
     0
 43
0.0
 10
252.3322
 20
9.3354
 42
1.0
 10
252.3322
 20
9.2973
  0
LWPOLYLINE
  5
2E6F
330
5AAA
100
AcDbEntity
  8
BOTTOM_S
100
AcDbPolyline
 90
        2
 70
     0
 43
0.0
 10
252.455
 20
9.2973
 42
1.0
 10
252.455
 20
9.3354
  0
LWPOLYLINE
  5
2E73
330
5AAA
100
AcDbEntity
  8
BOTTOM_S
100
AcDbPolyline
 90
        2
 70
     0
 43
0.0
 10
252.3322
 20
9.3163
 10
252.2093
 20
9.1935
  0
LWPOLYLINE
  5
2E77
330
5AAA
100
AcDbEntity
  8
BOTTOM_S
100
AcDbPolyline
 90
        2
 70
     0
 43
0.0
 10
252.1958
 20
9.2069
 42
1.0
 10
252.2228
 20
9.18
  0
LWPOLYLINE
  5
2E7B
330
5AAA
100
AcDbEntity
  8
BOTTOM_S
100
AcDbPolyline
 90
        2
 70
     0
 43
0.0
 10
252.3456
 20
9.3029
 42
1.0
 10
252.3187
 20
9.3298
  0
LWPOLYLINE
  5
2E7F
330
5AAA
100
AcDbEntity
  8
BOTTOM_S
100
AcDbPolyline
 90
        2
 70
     0
 43
0.0
 10
252.2093
 20
9.1935
 10
252.2093
 20
8.9477
  0
LWPOLYLINE
  5
2E83
330
5AAA
100
AcDbEntity
  8
BOTTOM_S
100
AcDbPolyline
 90
        2
 70
     0
 43
0.0
 10
252.1903
 20
8.9477
 42
1.0
 10
252.2284
 20
8.9477
  0
LWPOLYLINE
  5
2E87
330
5AAA
100
AcDbEntity
  8
BOTTOM_S
100
AcDbPolyline
 90
        2
 70
     0
 43
0.0
 10
252.2284
 20
9.1935
 42
1.0
 10
252.1903
 20
9.1935
  0
LWPOLYLINE
  5
2E8B
330
5AAA
100
AcDbEntity
  8
BOTTOM_S
100
AcDbPolyline
 90
        2
 70
     0
 43
0.0
 10
252.2093
 20
8.9477
 10
252.3322
 20
8.8249
  0
LWPOLYLINE
  5
2E8F
330
5AAA
100
AcDbEntity
  8
BOTTOM_S
100
AcDbPolyline
 90
        2
 70
     0
 43
0.0
 10
252.3187
 20
8.811399999999999
 42
1.0
 10
252.3456
 20
8.8383
  0
LWPOLYLINE
  5
2E93
330
5AAA
100
AcDbEntity
  8
BOTTOM_S
100
AcDbPolyline
 90
        2
 70
     0
 43
0.0
 10
252.2228
 20
8.9612
 42
1.0
 10
252.1958
 20
8.9343
  0
LWPOLYLINE
  5
2E97
330
5AAA
100
AcDbEntity
  8
BOTTOM_S
100
AcDbPolyline
 90
        2
 70
     0
 43
0.0
 10
252.7008
 20
9.5733
 10
252.9465
 20
9.818999999999999
  0
LWPOLYLINE
  5
2E9B
330
5AAA
100
AcDbEntity
  8
BOTTOM_S
100
AcDbPolyline
 90
        2
 70
     0
 43
0.0
 10
252.96
 20
9.8055
 42
1.0
 10
252.9331
 20
9.8325
  0
LWPOLYLINE
  5
2E9F
330
5AAA
100
AcDbEntity
  8
BOTTOM_S
100
AcDbPolyline
 90
        2
 70
     0
 43
0.0
 10
252.6873
 20
9.5867
 42
1.0
 10
252.7143
 20
9.5598
  0
LWPOLYLINE
  5
2EA3
330
5AAA
100
AcDbEntity
  8
BOTTOM_S
100
AcDbPolyline
 90
        2
 70
     0
 43
0.0
 10
252.9465
 20
9.818999999999999
 10
252.2093
 20
9.818999999999999
  0
LWPOLYLINE
  5
2EA7
330
5AAA
100
AcDbEntity
  8
BOTTOM_S
100
AcDbPolyline
 90
        2
 70
     0
 43
0.0
 10
252.2093
 20
9.8381
 42
1.0
 10
252.2093
 20
9.8
  0
LWPOLYLINE
  5
2EAB
330
5AAA
100
AcDbEntity
  8
BOTTOM_S
100
AcDbPolyline
 90
        2
 70
     0
 43
0.0
 10
252.9465
 20
9.8
 42
1.0
 10
252.9465
 20
9.8381
  0
LWPOLYLINE
  5
2EAF
330
5AAA
100
AcDbEntity
  8
BOTTOM_S
100
AcDbPolyline
 90
        2
 70
     0
 43
0.0
 10
252.2093
 20
9.5733
 10
252.2093
 20
10.0648
  0
LWPOLYLINE
  5
2EB3
330
5AAA
100
AcDbEntity
  8
BOTTOM_S
100
AcDbPolyline
 90
        2
 70
     0
 43
0.0
 10
252.2284
 20
10.0648
 42
1.0
 10
252.1903
 20
10.0648
  0
LWPOLYLINE
  5
2EB7
330
5AAA
100
AcDbEntity
  8
BOTTOM_S
100
AcDbPolyline
 90
        2
 70
     0
 43
0.0
 10
252.1903
 20
9.5733
 42
1.0
 10
252.2284
 20
9.5733
  0
LWPOLYLINE
  5
2EBB
330
5AAA
100
AcDbEntity
  8
BOTTOM_S
100
AcDbPolyline
 90
        2
 70
     0
 43
0.0
 10
252.3322
 20
10.3217
 10
252.8237
 20
10.3217
  0
LWPOLYLINE
  5
2EBF
330
5AAA
100
AcDbEntity
  8
BOTTOM_S
100
AcDbPolyline
 90
        2
 70
     0
 43
0.0
 10
252.8237
 20
10.3026
 42
1.0
 10
252.8237
 20
10.3407
  0
LWPOLYLINE
  5
2EC3
330
5AAA
100
AcDbEntity
  8
BOTTOM_S
100
AcDbPolyline
 90
        2
 70
     0
 43
0.0
 10
252.3322
 20
10.3407
 42
1.0
 10
252.3322
 20
10.3026
  0
LWPOLYLINE
  5
2EC7
330
5AAA
100
AcDbEntity
  8
BOTTOM_S
100
AcDbPolyline
 90
        2
 70
     0
 43
0.0
 10
252.8237
 20
10.3217
 10
252.9465
 20
10.4446
  0
LWPOLYLINE
  5
2ECB
330
5AAA
100
AcDbEntity
  8
BOTTOM_S
100
AcDbPolyline
 90
        2
 70
     0
 43
0.0
 10
252.96
 20
10.4311
 42
1.0
 10
252.9331
 20
10.458
  0
LWPOLYLINE
  5
2ECF
330
5AAA
100
AcDbEntity
  8
BOTTOM_S
100
AcDbPolyline
 90
        2
 70
     0
 43
0.0
 10
252.8102
 20
10.3352
 42
1.0
 10
252.8371
 20
10.3082
  0
LWPOLYLINE
  5
2ED3
330
5AAA
100
AcDbEntity
  8
BOTTOM_S
100
AcDbPolyline
 90
        2
 70
     0
 43
0.0
 10
252.9465
 20
10.4446
 10
252.9465
 20
10.6903
  0
LWPOLYLINE
  5
2ED7
330
5AAA
100
AcDbEntity
  8
BOTTOM_S
100
AcDbPolyline
 90
        2
 70
     0
 43
0.0
 10
252.9656
 20
10.6903
 42
1.0
 10
252.9275
 20
10.6903
  0
LWPOLYLINE
  5
2EDB
330
5AAA
100
AcDbEntity
  8
BOTTOM_S
100
AcDbPolyline
 90
        2
 70
     0
 43
0.0
 10
252.9275
 20
10.4446
 42
1.0
 10
252.9656
 20
10.4446
  0
LWPOLYLINE
  5
2EDF
330
5AAA
100
AcDbEntity
  8
BOTTOM_S
100
AcDbPolyline
 90
        2
 70
     0
 43
0.0
 10
252.9465
 20
10.6903
 10
252.8237
 20
10.8132
  0
LWPOLYLINE
  5
2EE3
330
5AAA
100
AcDbEntity
  8
BOTTOM_S
100
AcDbPolyline
 90
        2
 70
     0
 43
0.0
 10
252.8371
 20
10.8266
 42
1.0
 10
252.8102
 20
10.7997
  0
LWPOLYLINE
  5
2EE7
330
5AAA
100
AcDbEntity
  8
BOTTOM_S
100
AcDbPolyline
 90
        2
 70
     0
 43
0.0
 10
252.9331
 20
10.6768
 42
1.0
 10
252.96
 20
10.7038
  0
LWPOLYLINE
  5
2EEB
330
5AAA
100
AcDbEntity
  8
BOTTOM_S
100
AcDbPolyline
 90
        2
 70
     0
 43
0.0
 10
252.8237
 20
10.8132
 10
252.3322
 20
10.8132
  0
LWPOLYLINE
  5
2EEF
330
5AAA
100
AcDbEntity
  8
BOTTOM_S
100
AcDbPolyline
 90
        2
 70
     0
 43
0.0
 10
252.3322
 20
10.8322
 42
1.0
 10
252.3322
 20
10.7941
  0
LWPOLYLINE
  5
2EF3
330
5AAA
100
AcDbEntity
  8
BOTTOM_S
100
AcDbPolyline
 90
        2
 70
     0
 43
0.0
 10
252.8237
 20
10.7941
 42
1.0
 10
252.8237
 20
10.8322
  0
LWPOLYLINE
  5
2EF7
330
5AAA
100
AcDbEntity
  8
BOTTOM_S
100
AcDbPolyline
 90
        2
 70
     0
 43
0.0
 10
252.3322
 20
10.8132
 10
252.2093
 20
10.6903
  0
LWPOLYLINE
  5
2EFB
330
5AAA
100
AcDbEntity
  8
BOTTOM_S
100
AcDbPolyline
 90
        2
 70
     0
 43
0.0
 10
252.1958
 20
10.7038
 42
1.0
 10
252.2228
 20
10.6768
  0
LWPOLYLINE
  5
2EFF
330
5AAA
100
AcDbEntity
  8
BOTTOM_S
100
AcDbPolyline
 90
        2
 70
     0
 43
0.0
 10
252.3456
 20
10.7997
 42
1.0
 10
252.3187
 20
10.8266
  0
LWPOLYLINE
  5
2F03
330
5AAA
100
AcDbEntity
  8
BOTTOM_S
100
AcDbPolyline
 90
        2
 70
     0
 43
0.0
 10
252.2093
 20
10.6903
 10
252.2093
 20
10.4446
  0
LWPOLYLINE
  5
2F07
330
5AAA
100
AcDbEntity
  8
BOTTOM_S
100
AcDbPolyline
 90
        2
 70
     0
 43
0.0
 10
252.1903
 20
10.4446
 42
1.0
 10
252.2284
 20
10.4446
  0
LWPOLYLINE
  5
2F0B
330
5AAA
100
AcDbEntity
  8
BOTTOM_S
100
AcDbPolyline
 90
        2
 70
     0
 43
0.0
 10
252.2284
 20
10.6903
 42
1.0
 10
252.1903
 20
10.6903
  0
LWPOLYLINE
  5
2F0F
330
5AAA
100
AcDbEntity
  8
BOTTOM_S
100
AcDbPolyline
 90
        2
 70
     0
 43
0.0
 10
252.2093
 20
10.4446
 10
252.3322
 20
10.3217
  0
LWPOLYLINE
  5
2F13
330
5AAA
100
AcDbEntity
  8
BOTTOM_S
100
AcDbPolyline
 90
        2
 70
     0
 43
0.0
 10
252.3187
 20
10.3082
 42
1.0
 10
252.3456
 20
10.3352
  0
LWPOLYLINE
  5
2F17
330
5AAA
100
AcDbEntity
  8
BOTTOM_S
100
AcDbPolyline
 90
        2
 70
     0
 43
0.0
 10
252.2228
 20
10.458
 42
1.0
 10
252.1958
 20
10.4311
  0
LWPOLYLINE
  5
2F1B
330
5AAA
100
AcDbEntity
  8
BOTTOM_S
100
AcDbPolyline
 90
        2
 70
     0
 43
0.0
 10
252.3322
 20
10.3217
 10
252.8237
 20
10.8132
  0
LWPOLYLINE
  5
2F1F
330
5AAA
100
AcDbEntity
  8
BOTTOM_S
100
AcDbPolyline
 90
        2
 70
     0
 43
0.0
 10
252.8371
 20
10.7997
 42
1.0
 10
252.8102
 20
10.8266
  0
LWPOLYLINE
  5
2F23
330
5AAA
100
AcDbEntity
  8
BOTTOM_S
100
AcDbPolyline
 90
        2
 70
     0
 43
0.0
 10
252.3187
 20
10.3352
 42
1.0
 10
252.3456
 20
10.3082
  0
LWPOLYLINE
  5
2F27
330
5AAA
100
AcDbEntity
  8
BOTTOM_S
100
AcDbPolyline
 90
        2
 70
     0
 43
0.0
 10
259.9357
 20
10.0648
 10
260.0585
 20
9.9419
  0
LWPOLYLINE
  5
2F2B
330
5AAA
100
AcDbEntity
  8
BOTTOM_S
100
AcDbPolyline
 90
        2
 70
     0
 43
0.0
 10
260.0451
 20
9.9284
 42
1.0
 10
260.072
 20
9.9554
  0
LWPOLYLINE
  5
2F2F
330
5AAA
100
AcDbEntity
  8
BOTTOM_S
100
AcDbPolyline
 90
        2
 70
     0
 43
0.0
 10
259.9491
 20
10.0782
 42
1.0
 10
259.9222
 20
10.0513
  0
LWPOLYLINE
  5
2F33
330
5AAA
100
AcDbEntity
  8
BOTTOM_S
100
AcDbPolyline
 90
        2
 70
     0
 43
0.0
 10
260.0585
 20
9.9419
 10
260.0585
 20
9.6961
  0
LWPOLYLINE
  5
2F37
330
5AAA
100
AcDbEntity
  8
BOTTOM_S
100
AcDbPolyline
 90
        2
 70
     0
 43
0.0
 10
260.0395
 20
9.6961
 42
1.0
 10
260.0776
 20
9.6961
  0
LWPOLYLINE
  5
2F3B
330
5AAA
100
AcDbEntity
  8
BOTTOM_S
100
AcDbPolyline
 90
        2
 70
     0
 43
0.0
 10
260.0776
 20
9.9419
 42
1.0
 10
260.0395
 20
9.9419
  0
LWPOLYLINE
  5
2F3F
330
5AAA
100
AcDbEntity
  8
BOTTOM_S
100
AcDbPolyline
 90
        2
 70
     0
 43
0.0
 10
260.0585
 20
9.6961
 10
259.9357
 20
9.5733
  0
LWPOLYLINE
  5
2F43
330
5AAA
100
AcDbEntity
  8
BOTTOM_S
100
AcDbPolyline
 90
        2
 70
     0
 43
0.0
 10
259.9222
 20
9.5867
 42
1.0
 10
259.9491
 20
9.5598
  0
LWPOLYLINE
  5
2F47
330
5AAA
100
AcDbEntity
  8
BOTTOM_S
100
AcDbPolyline
 90
        2
 70
     0
 43
0.0
 10
260.072
 20
9.6827
 42
1.0
 10
260.0451
 20
9.7096
  0
LWPOLYLINE
  5
2F4B
330
5AAA
100
AcDbEntity
  8
BOTTOM_S
100
AcDbPolyline
 90
        2
 70
     0
 43
0.0
 10
259.9357
 20
9.5733
 10
259.8128
 20
9.5733
  0
LWPOLYLINE
  5
2F4F
330
5AAA
100
AcDbEntity
  8
BOTTOM_S
100
AcDbPolyline
 90
        2
 70
     0
 43
0.0
 10
259.8128
 20
9.5923
 42
1.0
 10
259.8128
 20
9.5542
  0
LWPOLYLINE
  5
2F53
330
5AAA
100
AcDbEntity
  8
BOTTOM_S
100
AcDbPolyline
 90
        2
 70
     0
 43
0.0
 10
259.9357
 20
9.5542
 42
1.0
 10
259.9357
 20
9.5923
  0
LWPOLYLINE
  5
2F57
330
5AAA
100
AcDbEntity
  8
BOTTOM_S
100
AcDbPolyline
 90
        2
 70
     0
 43
0.0
 10
259.8128
 20
9.5733
 10
259.6899
 20
9.6961
  0
LWPOLYLINE
  5
2F5B
330
5AAA
100
AcDbEntity
  8
BOTTOM_S
100
AcDbPolyline
 90
        2
 70
     0
 43
0.0
 10
259.7034
 20
9.7096
 42
1.0
 10
259.6764
 20
9.6827
  0
LWPOLYLINE
  5
2F5F
330
5AAA
100
AcDbEntity
  8
BOTTOM_S
100
AcDbPolyline
 90
        2
 70
     0
 43
0.0
 10
259.7993
 20
9.5598
 42
1.0
 10
259.8263
 20
9.5867
  0
LWPOLYLINE
  5
2F63
330
5AAA
100
AcDbEntity
  8
BOTTOM_S
100
AcDbPolyline
 90
        2
 70
     0
 43
0.0
 10
259.6899
 20
9.6961
 10
259.6899
 20
9.9419
  0
LWPOLYLINE
  5
2F67
330
5AAA
100
AcDbEntity
  8
BOTTOM_S
100
AcDbPolyline
 90
        2
 70
     0
 43
0.0
 10
259.709
 20
9.9419
 42
1.0
 10
259.6709
 20
9.9419
  0
LWPOLYLINE
  5
2F6B
330
5AAA
100
AcDbEntity
  8
BOTTOM_S
100
AcDbPolyline
 90
        2
 70
     0
 43
0.0
 10
259.6709
 20
9.6961
 42
1.0
 10
259.709
 20
9.6961
  0
LWPOLYLINE
  5
2F6F
330
5AAA
100
AcDbEntity
  8
BOTTOM_S
100
AcDbPolyline
 90
        2
 70
     0
 43
0.0
 10
259.6899
 20
9.9419
 10
259.567
 20
10.0648
  0
LWPOLYLINE
  5
2F73
330
5AAA
100
AcDbEntity
  8
BOTTOM_S
100
AcDbPolyline
 90
        2
 70
     0
 43
0.0
 10
259.5805
 20
10.0782
 42
1.0
 10
259.5536
 20
10.0513
  0
LWPOLYLINE
  5
2F77
330
5AAA
100
AcDbEntity
  8
BOTTOM_S
100
AcDbPolyline
 90
        2
 70
     0
 43
0.0
 10
259.6764
 20
9.9284
 42
1.0
 10
259.7034
 20
9.9554
  0
LWPOLYLINE
  5
2F7B
330
5AAA
100
AcDbEntity
  8
BOTTOM_S
100
AcDbPolyline
 90
        2
 70
     0
 43
0.0
 10
259.567
 20
10.0648
 10
259.4442
 20
10.0648
  0
LWPOLYLINE
  5
2F7F
330
5AAA
100
AcDbEntity
  8
BOTTOM_S
100
AcDbPolyline
 90
        2
 70
     0
 43
0.0
 10
259.4442
 20
10.0838
 42
1.0
 10
259.4442
 20
10.0457
  0
LWPOLYLINE
  5
2F83
330
5AAA
100
AcDbEntity
  8
BOTTOM_S
100
AcDbPolyline
 90
        2
 70
     0
 43
0.0
 10
259.567
 20
10.0457
 42
1.0
 10
259.567
 20
10.0838
  0
LWPOLYLINE
  5
2F87
330
5AAA
100
AcDbEntity
  8
BOTTOM_S
100
AcDbPolyline
 90
        2
 70
     0
 43
0.0
 10
259.4442
 20
10.0648
 10
259.3213
 20
9.9419
  0
LWPOLYLINE
  5
2F8B
330
5AAA
100
AcDbEntity
  8
BOTTOM_S
100
AcDbPolyline
 90
        2
 70
     0
 43
0.0
 10
259.3078
 20
9.9554
 42
1.0
 10
259.3348
 20
9.9284
  0
LWPOLYLINE
  5
2F8F
330
5AAA
100
AcDbEntity
  8
BOTTOM_S
100
AcDbPolyline
 90
        2
 70
     0
 43
0.0
 10
259.4576
 20
10.0513
 42
1.0
 10
259.4307
 20
10.0782
  0
LWPOLYLINE
  5
2F93
330
5AAA
100
AcDbEntity
  8
BOTTOM_S
100
AcDbPolyline
 90
        2
 70
     0
 43
0.0
 10
259.3213
 20
9.9419
 10
259.3213
 20
9.6961
  0
LWPOLYLINE
  5
2F97
330
5AAA
100
AcDbEntity
  8
BOTTOM_S
100
AcDbPolyline
 90
        2
 70
     0
 43
0.0
 10
259.3023
 20
9.6961
 42
1.0
 10
259.3403
 20
9.6961
  0
LWPOLYLINE
  5
2F9B
330
5AAA
100
AcDbEntity
  8
BOTTOM_S
100
AcDbPolyline
 90
        2
 70
     0
 43
0.0
 10
259.3403
 20
9.9419
 42
1.0
 10
259.3023
 20
9.9419
  0
LWPOLYLINE
  5
2F9F
330
5AAA
100
AcDbEntity
  8
BOTTOM_S
100
AcDbPolyline
 90
        2
 70
     0
 43
0.0
 10
259.3213
 20
9.6961
 10
259.4442
 20
9.5733
  0
LWPOLYLINE
  5
2FA3
330
5AAA
100
AcDbEntity
  8
BOTTOM_S
100
AcDbPolyline
 90
        2
 70
     0
 43
0.0
 10
259.4307
 20
9.5598
 42
1.0
 10
259.4576
 20
9.5867
  0
LWPOLYLINE
  5
2FA7
330
5AAA
100
AcDbEntity
  8
BOTTOM_S
100
AcDbPolyline
 90
        2
 70
     0
 43
0.0
 10
259.3348
 20
9.7096
 42
1.0
 10
259.3078
 20
9.6827
  0
LWPOLYLINE
  5
2FAB
330
5AAA
100
AcDbEntity
  8
BOTTOM_S
100
AcDbPolyline
 90
        2
 70
     0
 43
0.0
 10
260.0585
 20
10.8132
 10
260.0585
 20
10.3217
  0
LWPOLYLINE
  5
2FAF
330
5AAA
100
AcDbEntity
  8
BOTTOM_S
100
AcDbPolyline
 90
        2
 70
     0
 43
0.0
 10
260.0395
 20
10.3217
 42
1.0
 10
260.0776
 20
10.3217
  0
LWPOLYLINE
  5
2FB3
330
5AAA
100
AcDbEntity
  8
BOTTOM_S
100
AcDbPolyline
 90
        2
 70
     0
 43
0.0
 10
260.0776
 20
10.8132
 42
1.0
 10
260.0395
 20
10.8132
  0
LWPOLYLINE
  5
2FB7
330
5AAA
100
AcDbEntity
  8
BOTTOM_S
100
AcDbPolyline
 90
        2
 70
     0
 43
0.0
 10
260.0585
 20
10.3217
 10
259.6899
 20
10.3217
  0
LWPOLYLINE
  5
2FBB
330
5AAA
100
AcDbEntity
  8
BOTTOM_S
100
AcDbPolyline
 90
        2
 70
     0
 43
0.0
 10
259.6899
 20
10.3407
 42
1.0
 10
259.6899
 20
10.3026
  0
LWPOLYLINE
  5
2FBF
330
5AAA
100
AcDbEntity
  8
BOTTOM_S
100
AcDbPolyline
 90
        2
 70
     0
 43
0.0
 10
260.0585
 20
10.3026
 42
1.0
 10
260.0585
 20
10.3407
  0
LWPOLYLINE
  5
2FC3
330
5AAA
100
AcDbEntity
  8
BOTTOM_S
100
AcDbPolyline
 90
        2
 70
     0
 43
0.0
 10
259.6899
 20
10.3217
 10
259.8128
 20
10.5674
  0
LWPOLYLINE
  5
2FC7
330
5AAA
100
AcDbEntity
  8
BOTTOM_S
100
AcDbPolyline
 90
        2
 70
     0
 43
0.0
 10
259.8298
 20
10.5589
 42
1.0
 10
259.7957
 20
10.5759
  0
LWPOLYLINE
  5
2FCB
330
5AAA
100
AcDbEntity
  8
BOTTOM_S
100
AcDbPolyline
 90
        2
 70
     0
 43
0.0
 10
259.6729
 20
10.3302
 42
1.0
 10
259.707
 20
10.3132
  0
LWPOLYLINE
  5
2FCF
330
5AAA
100
AcDbEntity
  8
BOTTOM_S
100
AcDbPolyline
 90
        2
 70
     0
 43
0.0
 10
259.8128
 20
10.5674
 10
259.8128
 20
10.6903
  0
LWPOLYLINE
  5
2FD3
330
5AAA
100
AcDbEntity
  8
BOTTOM_S
100
AcDbPolyline
 90
        2
 70
     0
 43
0.0
 10
259.8318
 20
10.6903
 42
1.0
 10
259.7937
 20
10.6903
  0
LWPOLYLINE
  5
2FD7
330
5AAA
100
AcDbEntity
  8
BOTTOM_S
100
AcDbPolyline
 90
        2
 70
     0
 43
0.0
 10
259.7937
 20
10.5674
 42
1.0
 10
259.8318
 20
10.5674
  0
LWPOLYLINE
  5
2FDB
330
5AAA
100
AcDbEntity
  8
BOTTOM_S
100
AcDbPolyline
 90
        2
 70
     0
 43
0.0
 10
259.8128
 20
10.6903
 10
259.6899
 20
10.8132
  0
LWPOLYLINE
  5
2FDF
330
5AAA
100
AcDbEntity
  8
BOTTOM_S
100
AcDbPolyline
 90
        2
 70
     0
 43
0.0
 10
259.7034
 20
10.8266
 42
1.0
 10
259.6764
 20
10.7997
  0
LWPOLYLINE
  5
2FE3
330
5AAA
100
AcDbEntity
  8
BOTTOM_S
100
AcDbPolyline
 90
        2
 70
     0
 43
0.0
 10
259.7993
 20
10.6768
 42
1.0
 10
259.8263
 20
10.7038
  0
LWPOLYLINE
  5
2FE7
330
5AAA
100
AcDbEntity
  8
BOTTOM_S
100
AcDbPolyline
 90
        2
 70
     0
 43
0.0
 10
259.6899
 20
10.8132
 10
259.4442
 20
10.8132
  0
LWPOLYLINE
  5
2FEB
330
5AAA
100
AcDbEntity
  8
BOTTOM_S
100
AcDbPolyline
 90
        2
 70
     0
 43
0.0
 10
259.4442
 20
10.8322
 42
1.0
 10
259.4442
 20
10.7941
  0
LWPOLYLINE
  5
2FEF
330
5AAA
100
AcDbEntity
  8
BOTTOM_S
100
AcDbPolyline
 90
        2
 70
     0
 43
0.0
 10
259.6899
 20
10.7941
 42
1.0
 10
259.6899
 20
10.8322
  0
LWPOLYLINE
  5
2FF3
330
5AAA
100
AcDbEntity
  8
BOTTOM_S
100
AcDbPolyline
 90
        2
 70
     0
 43
0.0
 10
259.4442
 20
10.8132
 10
259.3213
 20
10.6903
  0
LWPOLYLINE
  5
2FF7
330
5AAA
100
AcDbEntity
  8
BOTTOM_S
100
AcDbPolyline
 90
        2
 70
     0
 43
0.0
 10
259.3078
 20
10.7038
 42
1.0
 10
259.3348
 20
10.6768
  0
LWPOLYLINE
  5
2FFB
330
5AAA
100
AcDbEntity
  8
BOTTOM_S
100
AcDbPolyline
 90
        2
 70
     0
 43
0.0
 10
259.4576
 20
10.7997
 42
1.0
 10
259.4307
 20
10.8266
  0
LWPOLYLINE
  5
2FFF
330
5AAA
100
AcDbEntity
  8
BOTTOM_S
100
AcDbPolyline
 90
        2
 70
     0
 43
0.0
 10
259.3213
 20
10.6903
 10
259.3213
 20
10.4446
  0
LWPOLYLINE
  5
3003
330
5AAA
100
AcDbEntity
  8
BOTTOM_S
100
AcDbPolyline
 90
        2
 70
     0
 43
0.0
 10
259.3023
 20
10.4446
 42
1.0
 10
259.3403
 20
10.4446
  0
LWPOLYLINE
  5
3007
330
5AAA
100
AcDbEntity
  8
BOTTOM_S
100
AcDbPolyline
 90
        2
 70
     0
 43
0.0
 10
259.3403
 20
10.6903
 42
1.0
 10
259.3023
 20
10.6903
  0
LWPOLYLINE
  5
300B
330
5AAA
100
AcDbEntity
  8
BOTTOM_S
100
AcDbPolyline
 90
        2
 70
     0
 43
0.0
 10
259.3213
 20
10.4446
 10
259.4442
 20
10.3217
  0
LWPOLYLINE
  5
300F
330
5AAA
100
AcDbEntity
  8
BOTTOM_S
100
AcDbPolyline
 90
        2
 70
     0
 43
0.0
 10
259.4307
 20
10.3082
 42
1.0
 10
259.4576
 20
10.3352
  0
LWPOLYLINE
  5
3013
330
5AAA
100
AcDbEntity
  8
BOTTOM_S
100
AcDbPolyline
 90
        2
 70
     0
 43
0.0
 10
259.3348
 20
10.458
 42
1.0
 10
259.3078
 20
10.4311
  0
LWPOLYLINE
  5
3017
330
5AAA
100
AcDbEntity
  8
BOTTOM_S
100
AcDbPolyline
 90
        2
 70
     0
 43
0.0
 10
260.7957
 20
12.9037
 10
260.9185
 20
13.0265
  0
LWPOLYLINE
  5
301B
330
5AAA
100
AcDbEntity
  8
BOTTOM_S
100
AcDbPolyline
 90
        2
 70
     0
 43
0.0
 10
260.932
 20
13.0131
 42
1.0
 10
260.9051
 20
13.04
  0
LWPOLYLINE
  5
301F
330
5AAA
100
AcDbEntity
  8
BOTTOM_S
100
AcDbPolyline
 90
        2
 70
     0
 43
0.0
 10
260.7822
 20
12.9171
 42
1.0
 10
260.8091
 20
12.8902
  0
LWPOLYLINE
  5
3023
330
5AAA
100
AcDbEntity
  8
BOTTOM_S
100
AcDbPolyline
 90
        2
 70
     0
 43
0.0
 10
260.9185
 20
13.0265
 10
261.1643
 20
13.0265
  0
LWPOLYLINE
  5
3027
330
5AAA
100
AcDbEntity
  8
BOTTOM_S
100
AcDbPolyline
 90
        2
 70
     0
 43
0.0
 10
261.1643
 20
13.0075
 42
1.0
 10
261.1643
 20
13.0456
  0
LWPOLYLINE
  5
302B
330
5AAA
100
AcDbEntity
  8
BOTTOM_S
100
AcDbPolyline
 90
        2
 70
     0
 43
0.0
 10
260.9185
 20
13.0456
 42
1.0
 10
260.9185
 20
13.0075
  0
LWPOLYLINE
  5
302F
330
5AAA
100
AcDbEntity
  8
BOTTOM_S
100
AcDbPolyline
 90
        2
 70
     0
 43
0.0
 10
261.1643
 20
13.0265
 10
261.2871
 20
12.9037
  0
LWPOLYLINE
  5
3033
330
5AAA
100
AcDbEntity
  8
BOTTOM_S
100
AcDbPolyline
 90
        2
 70
     0
 43
0.0
 10
261.2737
 20
12.8902
 42
1.0
 10
261.3006
 20
12.9171
  0
LWPOLYLINE
  5
3037
330
5AAA
100
AcDbEntity
  8
BOTTOM_S
100
AcDbPolyline
 90
        2
 70
     0
 43
0.0
 10
261.1777
 20
13.04
 42
1.0
 10
261.1508
 20
13.0131
  0
LWPOLYLINE
  5
303B
330
5AAA
100
AcDbEntity
  8
BOTTOM_S
100
AcDbPolyline
 90
        2
 70
     0
 43
0.0
 10
261.2871
 20
12.9037
 10
261.2871
 20
12.4122
  0
LWPOLYLINE
  5
303F
330
5AAA
100
AcDbEntity
  8
BOTTOM_S
100
AcDbPolyline
 90
        2
 70
     0
 43
0.0
 10
261.2681
 20
12.4122
 42
1.0
 10
261.3062
 20
12.4122
  0
LWPOLYLINE
  5
3043
330
5AAA
100
AcDbEntity
  8
BOTTOM_S
100
AcDbPolyline
 90
        2
 70
     0
 43
0.0
 10
261.3062
 20
12.9037
 42
1.0
 10
261.2681
 20
12.9037
  0
LWPOLYLINE
  5
3047
330
5AAA
100
AcDbEntity
  8
BOTTOM_S
100
AcDbPolyline
 90
        2
 70
     0
 43
0.0
 10
261.2871
 20
12.4122
 10
261.1643
 20
12.2893
  0
LWPOLYLINE
  5
304B
330
5AAA
100
AcDbEntity
  8
BOTTOM_S
100
AcDbPolyline
 90
        2
 70
     0
 43
0.0
 10
261.1508
 20
12.3028
 42
1.0
 10
261.1777
 20
12.2758
  0
LWPOLYLINE
  5
304F
330
5AAA
100
AcDbEntity
  8
BOTTOM_S
100
AcDbPolyline
 90
        2
 70
     0
 43
0.0
 10
261.3006
 20
12.3987
 42
1.0
 10
261.2737
 20
12.4256
  0
LWPOLYLINE
  5
3053
330
5AAA
100
AcDbEntity
  8
BOTTOM_S
100
AcDbPolyline
 90
        2
 70
     0
 43
0.0
 10
261.1643
 20
12.2893
 10
260.9185
 20
12.2893
  0
LWPOLYLINE
  5
3057
330
5AAA
100
AcDbEntity
  8
BOTTOM_S
100
AcDbPolyline
 90
        2
 70
     0
 43
0.0
 10
260.9185
 20
12.3084
 42
1.0
 10
260.9185
 20
12.2703
  0
LWPOLYLINE
  5
305B
330
5AAA
100
AcDbEntity
  8
BOTTOM_S
100
AcDbPolyline
 90
        2
 70
     0
 43
0.0
 10
261.1643
 20
12.2703
 42
1.0
 10
261.1643
 20
12.3084
  0
LWPOLYLINE
  5
305F
330
5AAA
100
AcDbEntity
  8
BOTTOM_S
100
AcDbPolyline
 90
        2
 70
     0
 43
0.0
 10
260.9185
 20
12.2893
 10
260.7957
 20
12.4122
  0
LWPOLYLINE
  5
3063
330
5AAA
100
AcDbEntity
  8
BOTTOM_S
100
AcDbPolyline
 90
        2
 70
     0
 43
0.0
 10
260.8091
 20
12.4256
 42
1.0
 10
260.7822
 20
12.3987
  0
LWPOLYLINE
  5
3067
330
5AAA
100
AcDbEntity
  8
BOTTOM_S
100
AcDbPolyline
 90
        2
 70
     0
 43
0.0
 10
260.9051
 20
12.2758
 42
1.0
 10
260.932
 20
12.3028
  0
LWPOLYLINE
  5
306B
330
5AAA
100
AcDbEntity
  8
BOTTOM_S
100
AcDbPolyline
 90
        2
 70
     0
 43
0.0
 10
260.5387
 20
13.0265
 10
260.5387
 20
12.2893
  0
LWPOLYLINE
  5
306F
330
5AAA
100
AcDbEntity
  8
BOTTOM_S
100
AcDbPolyline
 90
        2
 70
     0
 43
0.0
 10
260.5197
 20
12.2893
 42
1.0
 10
260.5578
 20
12.2893
  0
LWPOLYLINE
  5
3073
330
5AAA
100
AcDbEntity
  8
BOTTOM_S
100
AcDbPolyline
 90
        2
 70
     0
 43
0.0
 10
260.5578
 20
13.0265
 42
1.0
 10
260.5197
 20
13.0265
  0
LWPOLYLINE
  5
3077
330
5AAA
100
AcDbEntity
  8
BOTTOM_S
100
AcDbPolyline
 90
        2
 70
     0
 43
0.0
 10
260.5387
 20
12.2893
 10
260.1701
 20
12.2893
  0
LWPOLYLINE
  5
307B
330
5AAA
100
AcDbEntity
  8
BOTTOM_S
100
AcDbPolyline
 90
        2
 70
     0
 43
0.0
 10
260.1701
 20
12.3084
 42
1.0
 10
260.1701
 20
12.2703
  0
LWPOLYLINE
  5
307F
330
5AAA
100
AcDbEntity
  8
BOTTOM_S
100
AcDbPolyline
 90
        2
 70
     0
 43
0.0
 10
260.5387
 20
12.2703
 42
1.0
 10
260.5387
 20
12.3084
  0
LWPOLYLINE
  5
3083
330
5AAA
100
AcDbEntity
  8
BOTTOM_S
100
AcDbPolyline
 90
        2
 70
     0
 43
0.0
 10
260.1701
 20
12.2893
 10
260.0472
 20
12.4122
  0
LWPOLYLINE
  5
3087
330
5AAA
100
AcDbEntity
  8
BOTTOM_S
100
AcDbPolyline
 90
        2
 70
     0
 43
0.0
 10
260.0607
 20
12.4256
 42
1.0
 10
260.0338
 20
12.3987
  0
LWPOLYLINE
  5
308B
330
5AAA
100
AcDbEntity
  8
BOTTOM_S
100
AcDbPolyline
 90
        2
 70
     0
 43
0.0
 10
260.1566
 20
12.2758
 42
1.0
 10
260.1836
 20
12.3028
  0
LWPOLYLINE
  5
308F
330
5AAA
100
AcDbEntity
  8
BOTTOM_S
100
AcDbPolyline
 90
        2
 70
     0
 43
0.0
 10
260.0472
 20
12.4122
 10
260.0472
 20
12.9037
  0
LWPOLYLINE
  5
3093
330
5AAA
100
AcDbEntity
  8
BOTTOM_S
100
AcDbPolyline
 90
        2
 70
     0
 43
0.0
 10
260.0663
 20
12.9037
 42
1.0
 10
260.0282
 20
12.9037
  0
LWPOLYLINE
  5
3097
330
5AAA
100
AcDbEntity
  8
BOTTOM_S
100
AcDbPolyline
 90
        2
 70
     0
 43
0.0
 10
260.0282
 20
12.4122
 42
1.0
 10
260.0663
 20
12.4122
  0
LWPOLYLINE
  5
309B
330
5AAA
100
AcDbEntity
  8
BOTTOM_S
100
AcDbPolyline
 90
        2
 70
     0
 43
0.0
 10
260.0472
 20
12.9037
 10
260.1701
 20
13.0265
  0
LWPOLYLINE
  5
309F
330
5AAA
100
AcDbEntity
  8
BOTTOM_S
100
AcDbPolyline
 90
        2
 70
     0
 43
0.0
 10
260.1836
 20
13.0131
 42
1.0
 10
260.1566
 20
13.04
  0
LWPOLYLINE
  5
30A3
330
5AAA
100
AcDbEntity
  8
BOTTOM_S
100
AcDbPolyline
 90
        2
 70
     0
 43
0.0
 10
260.0338
 20
12.9171
 42
1.0
 10
260.0607
 20
12.8902
  0
LWPOLYLINE
  5
30A7
330
5AAA
100
AcDbEntity
  8
BOTTOM_S
100
AcDbPolyline
 90
        2
 70
     0
 43
0.0
 10
260.1701
 20
13.0265
 10
260.5387
 20
13.0265
  0
LWPOLYLINE
  5
30AB
330
5AAA
100
AcDbEntity
  8
BOTTOM_S
100
AcDbPolyline
 90
        2
 70
     0
 43
0.0
 10
260.5387
 20
13.0075
 42
1.0
 10
260.5387
 20
13.0456
  0
LWPOLYLINE
  5
30AF
330
5AAA
100
AcDbEntity
  8
BOTTOM_S
100
AcDbPolyline
 90
        2
 70
     0
 43
0.0
 10
260.1701
 20
13.0456
 42
1.0
 10
260.1701
 20
13.0075
  0
LWPOLYLINE
  5
30B3
330
5AAA
100
AcDbEntity
  8
BOTTOM_S
100
AcDbPolyline
 90
        2
 70
     0
 43
0.0
 10
259.7903
 20
12.9037
 10
259.6674
 20
13.0265
  0
LWPOLYLINE
  5
30B7
330
5AAA
100
AcDbEntity
  8
BOTTOM_S
100
AcDbPolyline
 90
        2
 70
     0
 43
0.0
 10
259.6809
 20
13.04
 42
1.0
 10
259.654
 20
13.0131
  0
LWPOLYLINE
  5
30BB
330
5AAA
100
AcDbEntity
  8
BOTTOM_S
100
AcDbPolyline
 90
        2
 70
     0
 43
0.0
 10
259.7768
 20
12.8902
 42
1.0
 10
259.8038
 20
12.9171
  0
LWPOLYLINE
  5
30BF
330
5AAA
100
AcDbEntity
  8
BOTTOM_S
100
AcDbPolyline
 90
        2
 70
     0
 43
0.0
 10
259.6674
 20
13.0265
 10
259.4217
 20
13.0265
  0
LWPOLYLINE
  5
30C3
330
5AAA
100
AcDbEntity
  8
BOTTOM_S
100
AcDbPolyline
 90
        2
 70
     0
 43
0.0
 10
259.4217
 20
13.0456
 42
1.0
 10
259.4217
 20
13.0075
  0
LWPOLYLINE
  5
30C7
330
5AAA
100
AcDbEntity
  8
BOTTOM_S
100
AcDbPolyline
 90
        2
 70
     0
 43
0.0
 10
259.6674
 20
13.0075
 42
1.0
 10
259.6674
 20
13.0456
  0
LWPOLYLINE
  5
30CB
330
5AAA
100
AcDbEntity
  8
BOTTOM_S
100
AcDbPolyline
 90
        2
 70
     0
 43
0.0
 10
259.4217
 20
13.0265
 10
259.2988
 20
12.9037
  0
LWPOLYLINE
  5
30CF
330
5AAA
100
AcDbEntity
  8
BOTTOM_S
100
AcDbPolyline
 90
        2
 70
     0
 43
0.0
 10
259.2854
 20
12.9171
 42
1.0
 10
259.3123
 20
12.8902
  0
LWPOLYLINE
  5
30D3
330
5AAA
100
AcDbEntity
  8
BOTTOM_S
100
AcDbPolyline
 90
        2
 70
     0
 43
0.0
 10
259.4352
 20
13.0131
 42
1.0
 10
259.4082
 20
13.04
  0
LWPOLYLINE
  5
30D7
330
5AAA
100
AcDbEntity
  8
BOTTOM_S
100
AcDbPolyline
 90
        2
 70
     0
 43
0.0
 10
259.2988
 20
12.9037
 10
259.2988
 20
12.7808
  0
LWPOLYLINE
  5
30DB
330
5AAA
100
AcDbEntity
  8
BOTTOM_S
100
AcDbPolyline
 90
        2
 70
     0
 43
0.0
 10
259.2798
 20
12.7808
 42
1.0
 10
259.3179
 20
12.7808
  0
LWPOLYLINE
  5
30DF
330
5AAA
100
AcDbEntity
  8
BOTTOM_S
100
AcDbPolyline
 90
        2
 70
     0
 43
0.0
 10
259.3179
 20
12.9037
 42
1.0
 10
259.2798
 20
12.9037
  0
LWPOLYLINE
  5
30E3
330
5AAA
100
AcDbEntity
  8
BOTTOM_S
100
AcDbPolyline
 90
        2
 70
     0
 43
0.0
 10
259.2988
 20
12.7808
 10
259.4217
 20
12.6579
  0
LWPOLYLINE
  5
30E7
330
5AAA
100
AcDbEntity
  8
BOTTOM_S
100
AcDbPolyline
 90
        2
 70
     0
 43
0.0
 10
259.4082
 20
12.6444
 42
1.0
 10
259.4352
 20
12.6714
  0
LWPOLYLINE
  5
30EB
330
5AAA
100
AcDbEntity
  8
BOTTOM_S
100
AcDbPolyline
 90
        2
 70
     0
 43
0.0
 10
259.3123
 20
12.7943
 42
1.0
 10
259.2854
 20
12.7673
  0
LWPOLYLINE
  5
30EF
330
5AAA
100
AcDbEntity
  8
BOTTOM_S
100
AcDbPolyline
 90
        2
 70
     0
 43
0.0
 10
259.4217
 20
12.6579
 10
259.5446
 20
12.6579
  0
LWPOLYLINE
  5
30F3
330
5AAA
100
AcDbEntity
  8
BOTTOM_S
100
AcDbPolyline
 90
        2
 70
     0
 43
0.0
 10
259.5446
 20
12.6389
 42
1.0
 10
259.5446
 20
12.677
  0
LWPOLYLINE
  5
30F7
330
5AAA
100
AcDbEntity
  8
BOTTOM_S
100
AcDbPolyline
 90
        2
 70
     0
 43
0.0
 10
259.4217
 20
12.677
 42
1.0
 10
259.4217
 20
12.6389
  0
LWPOLYLINE
  5
30FB
330
5AAA
100
AcDbEntity
  8
BOTTOM_S
100
AcDbPolyline
 90
        2
 70
     0
 43
0.0
 10
259.4217
 20
12.6579
 10
259.2988
 20
12.535
  0
LWPOLYLINE
  5
30FF
330
5AAA
100
AcDbEntity
  8
BOTTOM_S
100
AcDbPolyline
 90
        2
 70
     0
 43
0.0
 10
259.2854
 20
12.5485
 42
1.0
 10
259.3123
 20
12.5216
  0
LWPOLYLINE
  5
3103
330
5AAA
100
AcDbEntity
  8
BOTTOM_S
100
AcDbPolyline
 90
        2
 70
     0
 43
0.0
 10
259.4352
 20
12.6444
 42
1.0
 10
259.4082
 20
12.6714
  0
LWPOLYLINE
  5
3107
330
5AAA
100
AcDbEntity
  8
BOTTOM_S
100
AcDbPolyline
 90
        2
 70
     0
 43
0.0
 10
259.2988
 20
12.535
 10
259.2988
 20
12.4122
  0
LWPOLYLINE
  5
310B
330
5AAA
100
AcDbEntity
  8
BOTTOM_S
100
AcDbPolyline
 90
        2
 70
     0
 43
0.0
 10
259.2798
 20
12.4122
 42
1.0
 10
259.3179
 20
12.4122
  0
LWPOLYLINE
  5
310F
330
5AAA
100
AcDbEntity
  8
BOTTOM_S
100
AcDbPolyline
 90
        2
 70
     0
 43
0.0
 10
259.3179
 20
12.535
 42
1.0
 10
259.2798
 20
12.535
  0
LWPOLYLINE
  5
3113
330
5AAA
100
AcDbEntity
  8
BOTTOM_S
100
AcDbPolyline
 90
        2
 70
     0
 43
0.0
 10
259.2988
 20
12.4122
 10
259.4217
 20
12.2893
  0
LWPOLYLINE
  5
3117
330
5AAA
100
AcDbEntity
  8
BOTTOM_S
100
AcDbPolyline
 90
        2
 70
     0
 43
0.0
 10
259.4082
 20
12.2758
 42
1.0
 10
259.4352
 20
12.3028
  0
LWPOLYLINE
  5
311B
330
5AAA
100
AcDbEntity
  8
BOTTOM_S
100
AcDbPolyline
 90
        2
 70
     0
 43
0.0
 10
259.3123
 20
12.4256
 42
1.0
 10
259.2854
 20
12.3987
  0
LWPOLYLINE
  5
311F
330
5AAA
100
AcDbEntity
  8
BOTTOM_S
100
AcDbPolyline
 90
        2
 70
     0
 43
0.0
 10
259.4217
 20
12.2893
 10
259.6674
 20
12.2893
  0
LWPOLYLINE
  5
3123
330
5AAA
100
AcDbEntity
  8
BOTTOM_S
100
AcDbPolyline
 90
        2
 70
     0
 43
0.0
 10
259.6674
 20
12.2703
 42
1.0
 10
259.6674
 20
12.3084
  0
LWPOLYLINE
  5
3127
330
5AAA
100
AcDbEntity
  8
BOTTOM_S
100
AcDbPolyline
 90
        2
 70
     0
 43
0.0
 10
259.4217
 20
12.3084
 42
1.0
 10
259.4217
 20
12.2703
  0
LWPOLYLINE
  5
312B
330
5AAA
100
AcDbEntity
  8
BOTTOM_S
100
AcDbPolyline
 90
        2
 70
     0
 43
0.0
 10
259.6674
 20
12.2893
 10
259.7903
 20
12.4122
  0
LWPOLYLINE
  5
312F
330
5AAA
100
AcDbEntity
  8
BOTTOM_S
100
AcDbPolyline
 90
        2
 70
     0
 43
0.0
 10
259.8038
 20
12.3987
 42
1.0
 10
259.7768
 20
12.4256
  0
LWPOLYLINE
  5
3133
330
5AAA
100
AcDbEntity
  8
BOTTOM_S
100
AcDbPolyline
 90
        2
 70
     0
 43
0.0
 10
259.654
 20
12.3028
 42
1.0
 10
259.6809
 20
12.2758
  0
LWPOLYLINE
  5
3137
330
5AAA
100
AcDbEntity
  8
BOTTOM_S
100
AcDbPolyline
 90
        2
 70
     0
 43
0.0
 10
252.9459
 20
13.0773
 10
252.9459
 20
12.3401
  0
LWPOLYLINE
  5
313B
330
5AAA
100
AcDbEntity
  8
BOTTOM_S
100
AcDbPolyline
 90
        2
 70
     0
 43
0.0
 10
252.9269
 20
12.3401
 42
1.0
 10
252.965
 20
12.3401
  0
LWPOLYLINE
  5
313F
330
5AAA
100
AcDbEntity
  8
BOTTOM_S
100
AcDbPolyline
 90
        2
 70
     0
 43
0.0
 10
252.965
 20
13.0773
 42
1.0
 10
252.9269
 20
13.0773
  0
LWPOLYLINE
  5
3143
330
5AAA
100
AcDbEntity
  8
BOTTOM_S
100
AcDbPolyline
 90
        2
 70
     0
 43
0.0
 10
252.9459
 20
12.3401
 10
252.5773
 20
12.3401
  0
LWPOLYLINE
  5
3147
330
5AAA
100
AcDbEntity
  8
BOTTOM_S
100
AcDbPolyline
 90
        2
 70
     0
 43
0.0
 10
252.5773
 20
12.3591
 42
1.0
 10
252.5773
 20
12.321
  0
LWPOLYLINE
  5
314B
330
5AAA
100
AcDbEntity
  8
BOTTOM_S
100
AcDbPolyline
 90
        2
 70
     0
 43
0.0
 10
252.9459
 20
12.321
 42
1.0
 10
252.9459
 20
12.3591
  0
LWPOLYLINE
  5
314F
330
5AAA
100
AcDbEntity
  8
BOTTOM_S
100
AcDbPolyline
 90
        2
 70
     0
 43
0.0
 10
252.5773
 20
12.3401
 10
252.4544
 20
12.463
  0
LWPOLYLINE
  5
3153
330
5AAA
100
AcDbEntity
  8
BOTTOM_S
100
AcDbPolyline
 90
        2
 70
     0
 43
0.0
 10
252.4679
 20
12.4764
 42
1.0
 10
252.4409
 20
12.4495
  0
LWPOLYLINE
  5
3157
330
5AAA
100
AcDbEntity
  8
BOTTOM_S
100
AcDbPolyline
 90
        2
 70
     0
 43
0.0
 10
252.5638
 20
12.3266
 42
1.0
 10
252.5908
 20
12.3536
  0
LWPOLYLINE
  5
315B
330
5AAA
100
AcDbEntity
  8
BOTTOM_S
100
AcDbPolyline
 90
        2
 70
     0
 43
0.0
 10
252.4544
 20
12.463
 10
252.4544
 20
12.9545
  0
LWPOLYLINE
  5
315F
330
5AAA
100
AcDbEntity
  8
BOTTOM_S
100
AcDbPolyline
 90
        2
 70
     0
 43
0.0
 10
252.4735
 20
12.9545
 42
1.0
 10
252.4354
 20
12.9545
  0
LWPOLYLINE
  5
3163
330
5AAA
100
AcDbEntity
  8
BOTTOM_S
100
AcDbPolyline
 90
        2
 70
     0
 43
0.0
 10
252.4354
 20
12.463
 42
1.0
 10
252.4735
 20
12.463
  0
LWPOLYLINE
  5
3167
330
5AAA
100
AcDbEntity
  8
BOTTOM_S
100
AcDbPolyline
 90
        2
 70
     0
 43
0.0
 10
252.4544
 20
12.9545
 10
252.5773
 20
13.0773
  0
LWPOLYLINE
  5
316B
330
5AAA
100
AcDbEntity
  8
BOTTOM_S
100
AcDbPolyline
 90
        2
 70
     0
 43
0.0
 10
252.5908
 20
13.0639
 42
1.0
 10
252.5638
 20
13.0908
  0
LWPOLYLINE
  5
316F
330
5AAA
100
AcDbEntity
  8
BOTTOM_S
100
AcDbPolyline
 90
        2
 70
     0
 43
0.0
 10
252.4409
 20
12.9679
 42
1.0
 10
252.4679
 20
12.941
  0
LWPOLYLINE
  5
3173
330
5AAA
100
AcDbEntity
  8
BOTTOM_S
100
AcDbPolyline
 90
        2
 70
     0
 43
0.0
 10
252.5773
 20
13.0773
 10
252.9459
 20
13.0773
  0
LWPOLYLINE
  5
3177
330
5AAA
100
AcDbEntity
  8
BOTTOM_S
100
AcDbPolyline
 90
        2
 70
     0
 43
0.0
 10
252.9459
 20
13.0583
 42
1.0
 10
252.9459
 20
13.0964
  0
LWPOLYLINE
  5
317B
330
5AAA
100
AcDbEntity
  8
BOTTOM_S
100
AcDbPolyline
 90
        2
 70
     0
 43
0.0
 10
252.5773
 20
13.0964
 42
1.0
 10
252.5773
 20
13.0583
  0
LWPOLYLINE
  5
317F
330
5AAA
100
AcDbEntity
  8
BOTTOM_S
100
AcDbPolyline
 90
        2
 70
     0
 43
0.0
 10
251.706
 20
12.3401
 10
252.1975
 20
12.3401
  0
LWPOLYLINE
  5
3183
330
5AAA
100
AcDbEntity
  8
BOTTOM_S
100
AcDbPolyline
 90
        2
 70
     0
 43
0.0
 10
252.1975
 20
12.321
 42
1.0
 10
252.1975
 20
12.3591
  0
LWPOLYLINE
  5
3187
330
5AAA
100
AcDbEntity
  8
BOTTOM_S
100
AcDbPolyline
 90
        2
 70
     0
 43
0.0
 10
251.706
 20
12.3591
 42
1.0
 10
251.706
 20
12.321
  0
LWPOLYLINE
  5
318B
330
5AAA
100
AcDbEntity
  8
BOTTOM_S
100
AcDbPolyline
 90
        2
 70
     0
 43
0.0
 10
252.1975
 20
12.3401
 10
251.706
 20
12.8316
  0
LWPOLYLINE
  5
318F
330
5AAA
100
AcDbEntity
  8
BOTTOM_S
100
AcDbPolyline
 90
        2
 70
     0
 43
0.0
 10
251.7195
 20
12.8451
 42
1.0
 10
251.6925
 20
12.8181
  0
LWPOLYLINE
  5
3193
330
5AAA
100
AcDbEntity
  8
BOTTOM_S
100
AcDbPolyline
 90
        2
 70
     0
 43
0.0
 10
252.184
 20
12.3266
 42
1.0
 10
252.211
 20
12.3536
  0
LWPOLYLINE
  5
3197
330
5AAA
100
AcDbEntity
  8
BOTTOM_S
100
AcDbPolyline
 90
        2
 70
     0
 43
0.0
 10
251.706
 20
12.8316
 10
251.706
 20
12.9545
  0
LWPOLYLINE
  5
319B
330
5AAA
100
AcDbEntity
  8
BOTTOM_S
100
AcDbPolyline
 90
        2
 70
     0
 43
0.0
 10
251.7251
 20
12.9545
 42
1.0
 10
251.687
 20
12.9545
  0
LWPOLYLINE
  5
319F
330
5AAA
100
AcDbEntity
  8
BOTTOM_S
100
AcDbPolyline
 90
        2
 70
     0
 43
0.0
 10
251.687
 20
12.8316
 42
1.0
 10
251.7251
 20
12.8316
  0
LWPOLYLINE
  5
31A3
330
5AAA
100
AcDbEntity
  8
BOTTOM_S
100
AcDbPolyline
 90
        2
 70
     0
 43
0.0
 10
251.706
 20
12.9545
 10
251.8289
 20
13.0773
  0
LWPOLYLINE
  5
31A7
330
5AAA
100
AcDbEntity
  8
BOTTOM_S
100
AcDbPolyline
 90
        2
 70
     0
 43
0.0
 10
251.8423
 20
13.0639
 42
1.0
 10
251.8154
 20
13.0908
  0
LWPOLYLINE
  5
31AB
330
5AAA
100
AcDbEntity
  8
BOTTOM_S
100
AcDbPolyline
 90
        2
 70
     0
 43
0.0
 10
251.6925
 20
12.9679
 42
1.0
 10
251.7195
 20
12.941
  0
LWPOLYLINE
  5
31AF
330
5AAA
100
AcDbEntity
  8
BOTTOM_S
100
AcDbPolyline
 90
        2
 70
     0
 43
0.0
 10
251.8289
 20
13.0773
 10
252.0746
 20
13.0773
  0
LWPOLYLINE
  5
31B3
330
5AAA
100
AcDbEntity
  8
BOTTOM_S
100
AcDbPolyline
 90
        2
 70
     0
 43
0.0
 10
252.0746
 20
13.0583
 42
1.0
 10
252.0746
 20
13.0964
  0
LWPOLYLINE
  5
31B7
330
5AAA
100
AcDbEntity
  8
BOTTOM_S
100
AcDbPolyline
 90
        2
 70
     0
 43
0.0
 10
251.8289
 20
13.0964
 42
1.0
 10
251.8289
 20
13.0583
  0
LWPOLYLINE
  5
31BB
330
5AAA
100
AcDbEntity
  8
BOTTOM_S
100
AcDbPolyline
 90
        2
 70
     0
 43
0.0
 10
252.0746
 20
13.0773
 10
252.1975
 20
12.9545
  0
LWPOLYLINE
  5
31BF
330
5AAA
100
AcDbEntity
  8
BOTTOM_S
100
AcDbPolyline
 90
        2
 70
     0
 43
0.0
 10
252.184
 20
12.941
 42
1.0
 10
252.211
 20
12.9679
  0
LWPOLYLINE
  5
31C3
330
5AAA
100
AcDbEntity
  8
BOTTOM_S
100
AcDbPolyline
 90
        2
 70
     0
 43
0.0
 10
252.0881
 20
13.0908
 42
1.0
 10
252.0611
 20
13.0639
  0
LWPOLYLINE
  5
31C7
330
5AAA
100
AcDbEntity
  8
BOTTOM_S
100
AcDbPolyline
 90
        2
 70
     0
 43
0.0
 10
260.5387
 20
15.5665
 10
260.5387
 20
14.8293
  0
LWPOLYLINE
  5
31CB
330
5AAA
100
AcDbEntity
  8
BOTTOM_S
100
AcDbPolyline
 90
        2
 70
     0
 43
0.0
 10
260.5197
 20
14.8293
 42
1.0
 10
260.5578
 20
14.8293
  0
LWPOLYLINE
  5
31CF
330
5AAA
100
AcDbEntity
  8
BOTTOM_S
100
AcDbPolyline
 90
        2
 70
     0
 43
0.0
 10
260.5578
 20
15.5665
 42
1.0
 10
260.5197
 20
15.5665
  0
LWPOLYLINE
  5
31D3
330
5AAA
100
AcDbEntity
  8
BOTTOM_S
100
AcDbPolyline
 90
        2
 70
     0
 43
0.0
 10
260.5387
 20
14.8293
 10
260.1701
 20
14.8293
  0
LWPOLYLINE
  5
31D7
330
5AAA
100
AcDbEntity
  8
BOTTOM_S
100
AcDbPolyline
 90
        2
 70
     0
 43
0.0
 10
260.1701
 20
14.8484
 42
1.0
 10
260.1701
 20
14.8103
  0
LWPOLYLINE
  5
31DB
330
5AAA
100
AcDbEntity
  8
BOTTOM_S
100
AcDbPolyline
 90
        2
 70
     0
 43
0.0
 10
260.5387
 20
14.8103
 42
1.0
 10
260.5387
 20
14.8484
  0
LWPOLYLINE
  5
31DF
330
5AAA
100
AcDbEntity
  8
BOTTOM_S
100
AcDbPolyline
 90
        2
 70
     0
 43
0.0
 10
260.1701
 20
14.8293
 10
260.0472
 20
14.9522
  0
LWPOLYLINE
  5
31E3
330
5AAA
100
AcDbEntity
  8
BOTTOM_S
100
AcDbPolyline
 90
        2
 70
     0
 43
0.0
 10
260.0607
 20
14.9656
 42
1.0
 10
260.0338
 20
14.9387
  0
LWPOLYLINE
  5
31E7
330
5AAA
100
AcDbEntity
  8
BOTTOM_S
100
AcDbPolyline
 90
        2
 70
     0
 43
0.0
 10
260.1566
 20
14.8158
 42
1.0
 10
260.1836
 20
14.8428
  0
LWPOLYLINE
  5
31EB
330
5AAA
100
AcDbEntity
  8
BOTTOM_S
100
AcDbPolyline
 90
        2
 70
     0
 43
0.0
 10
260.0472
 20
14.9522
 10
260.0472
 20
15.4437
  0
LWPOLYLINE
  5
31EF
330
5AAA
100
AcDbEntity
  8
BOTTOM_S
100
AcDbPolyline
 90
        2
 70
     0
 43
0.0
 10
260.0663
 20
15.4437
 42
1.0
 10
260.0282
 20
15.4437
  0
LWPOLYLINE
  5
31F3
330
5AAA
100
AcDbEntity
  8
BOTTOM_S
100
AcDbPolyline
 90
        2
 70
     0
 43
0.0
 10
260.0282
 20
14.9522
 42
1.0
 10
260.0663
 20
14.9522
  0
LWPOLYLINE
  5
31F7
330
5AAA
100
AcDbEntity
  8
BOTTOM_S
100
AcDbPolyline
 90
        2
 70
     0
 43
0.0
 10
260.0472
 20
15.4437
 10
260.1701
 20
15.5665
  0
LWPOLYLINE
  5
31FB
330
5AAA
100
AcDbEntity
  8
BOTTOM_S
100
AcDbPolyline
 90
        2
 70
     0
 43
0.0
 10
260.1836
 20
15.5531
 42
1.0
 10
260.1566
 20
15.58
  0
LWPOLYLINE
  5
31FF
330
5AAA
100
AcDbEntity
  8
BOTTOM_S
100
AcDbPolyline
 90
        2
 70
     0
 43
0.0
 10
260.0338
 20
15.4571
 42
1.0
 10
260.0607
 20
15.4302
  0
LWPOLYLINE
  5
3203
330
5AAA
100
AcDbEntity
  8
BOTTOM_S
100
AcDbPolyline
 90
        2
 70
     0
 43
0.0
 10
260.1701
 20
15.5665
 10
260.5387
 20
15.5665
  0
LWPOLYLINE
  5
3207
330
5AAA
100
AcDbEntity
  8
BOTTOM_S
100
AcDbPolyline
 90
        2
 70
     0
 43
0.0
 10
260.5387
 20
15.5475
 42
1.0
 10
260.5387
 20
15.5856
  0
LWPOLYLINE
  5
320B
330
5AAA
100
AcDbEntity
  8
BOTTOM_S
100
AcDbPolyline
 90
        2
 70
     0
 43
0.0
 10
260.1701
 20
15.5856
 42
1.0
 10
260.1701
 20
15.5475
  0
LWPOLYLINE
  5
320F
330
5AAA
100
AcDbEntity
  8
BOTTOM_S
100
AcDbPolyline
 90
        2
 70
     0
 43
0.0
 10
259.7903
 20
15.3208
 10
259.5446
 20
15.5665
  0
LWPOLYLINE
  5
3213
330
5AAA
100
AcDbEntity
  8
BOTTOM_S
100
AcDbPolyline
 90
        2
 70
     0
 43
0.0
 10
259.558
 20
15.58
 42
1.0
 10
259.5311
 20
15.5531
  0
LWPOLYLINE
  5
3217
330
5AAA
100
AcDbEntity
  8
BOTTOM_S
100
AcDbPolyline
 90
        2
 70
     0
 43
0.0
 10
259.7768
 20
15.3073
 42
1.0
 10
259.8038
 20
15.3343
  0
LWPOLYLINE
  5
321B
330
5AAA
100
AcDbEntity
  8
BOTTOM_S
100
AcDbPolyline
 90
        2
 70
     0
 43
0.0
 10
259.5446
 20
15.5665
 10
259.5446
 20
14.8293
  0
LWPOLYLINE
  5
321F
330
5AAA
100
AcDbEntity
  8
BOTTOM_S
100
AcDbPolyline
 90
        2
 70
     0
 43
0.0
 10
259.5255
 20
14.8293
 42
1.0
 10
259.5636
 20
14.8293
  0
LWPOLYLINE
  5
3223
330
5AAA
100
AcDbEntity
  8
BOTTOM_S
100
AcDbPolyline
 90
        2
 70
     0
 43
0.0
 10
259.5636
 20
15.5665
 42
1.0
 10
259.5255
 20
15.5665
  0
LWPOLYLINE
  5
3227
330
5AAA
100
AcDbEntity
  8
BOTTOM_S
100
AcDbPolyline
 90
        2
 70
     0
 43
0.0
 10
259.7903
 20
14.8293
 10
259.2988
 20
14.8293
  0
LWPOLYLINE
  5
322B
330
5AAA
100
AcDbEntity
  8
BOTTOM_S
100
AcDbPolyline
 90
        2
 70
     0
 43
0.0
 10
259.2988
 20
14.8484
 42
1.0
 10
259.2988
 20
14.8103
  0
LWPOLYLINE
  5
322F
330
5AAA
100
AcDbEntity
  8
BOTTOM_S
100
AcDbPolyline
 90
        2
 70
     0
 43
0.0
 10
259.7903
 20
14.8103
 42
1.0
 10
259.7903
 20
14.8484
  0
CIRCLE
  5
32D8
330
5AAA
100
AcDbEntity
  8
Dimension
100
AcDbCircle
 10
232.029
 20
18.271
 30
0.0
 40
1.6
  0
CIRCLE
  5
32E3
330
5AAA
100
AcDbEntity
  8
Dimension
100
AcDbCircle
 10
232.029
 20
6.46
 30
0.0
 40
1.6
  0
LWPOLYLINE
  5
33BE
330
5AAA
100
AcDbEntity
  8
TOP_S
100
AcDbPolyline
 90
        2
 70
     0
 43
0.0
 10
222.488
 20
15.747
 10
224.142
 20
15.747
  0
LWPOLYLINE
  5
33C2
330
5AAA
100
AcDbEntity
  8
TOP_S
100
AcDbPolyline
 90
        2
 70
     0
 43
0.0
 10
224.142
 20
15.6962
 42
1.0
 10
224.142
 20
15.7978
  0
LWPOLYLINE
  5
33C6
330
5AAA
100
AcDbEntity
  8
TOP_S
100
AcDbPolyline
 90
        2
 70
     0
 43
0.0
 10
222.488
 20
15.7978
 42
1.0
 10
222.488
 20
15.6962
  0
LWPOLYLINE
  5
33CA
330
5AAA
100
AcDbEntity
  8
TOP_S
100
AcDbPolyline
 90
        2
 70
     0
 43
0.0
 10
224.142
 20
15.747
 10
224.142
 20
17.747
  0
LWPOLYLINE
  5
33CE
330
5AAA
100
AcDbEntity
  8
TOP_S
100
AcDbPolyline
 90
        2
 70
     0
 43
0.0
 10
224.1928
 20
17.747
 42
1.0
 10
224.0912
 20
17.747
  0
LWPOLYLINE
  5
33D2
330
5AAA
100
AcDbEntity
  8
TOP_S
100
AcDbPolyline
 90
        2
 70
     0
 43
0.0
 10
224.0912
 20
15.747
 42
1.0
 10
224.1928
 20
15.747
  0
LWPOLYLINE
  5
33D6
330
5AAA
100
AcDbEntity
  8
TOP_S
100
AcDbPolyline
 90
        2
 70
     0
 43
0.0
 10
224.142
 20
17.747
 10
222.488
 20
17.747
  0
LWPOLYLINE
  5
33DA
330
5AAA
100
AcDbEntity
  8
TOP_S
100
AcDbPolyline
 90
        2
 70
     0
 43
0.0
 10
222.488
 20
17.7978
 42
1.0
 10
222.488
 20
17.6962
  0
LWPOLYLINE
  5
33DE
330
5AAA
100
AcDbEntity
  8
TOP_S
100
AcDbPolyline
 90
        2
 70
     0
 43
0.0
 10
224.142
 20
17.6962
 42
1.0
 10
224.142
 20
17.7978
  0
LWPOLYLINE
  5
33E2
330
5AAA
100
AcDbEntity
  8
TOP_S
100
AcDbPolyline
 90
        2
 70
     0
 43
0.0
 10
220.488
 20
15.747
 10
218.834
 20
15.747
  0
LWPOLYLINE
  5
33E6
330
5AAA
100
AcDbEntity
  8
TOP_S
100
AcDbPolyline
 90
        2
 70
     0
 43
0.0
 10
218.834
 20
15.7978
 42
1.0
 10
218.834
 20
15.6962
  0
LWPOLYLINE
  5
33EA
330
5AAA
100
AcDbEntity
  8
TOP_S
100
AcDbPolyline
 90
        2
 70
     0
 43
0.0
 10
220.488
 20
15.6962
 42
1.0
 10
220.488
 20
15.7978
  0
LWPOLYLINE
  5
33EE
330
5AAA
100
AcDbEntity
  8
TOP_S
100
AcDbPolyline
 90
        2
 70
     0
 43
0.0
 10
218.834
 20
15.747
 10
218.834
 20
17.747
  0
LWPOLYLINE
  5
33F2
330
5AAA
100
AcDbEntity
  8
TOP_S
100
AcDbPolyline
 90
        2
 70
     0
 43
0.0
 10
218.8848
 20
17.747
 42
1.0
 10
218.7832
 20
17.747
  0
LWPOLYLINE
  5
33F6
330
5AAA
100
AcDbEntity
  8
TOP_S
100
AcDbPolyline
 90
        2
 70
     0
 43
0.0
 10
218.7832
 20
15.747
 42
1.0
 10
218.8848
 20
15.747
  0
LWPOLYLINE
  5
33FA
330
5AAA
100
AcDbEntity
  8
TOP_S
100
AcDbPolyline
 90
        2
 70
     0
 43
0.0
 10
218.834
 20
17.747
 10
220.488
 20
17.747
  0
LWPOLYLINE
  5
33FE
330
5AAA
100
AcDbEntity
  8
TOP_S
100
AcDbPolyline
 90
        2
 70
     0
 43
0.0
 10
220.488
 20
17.6962
 42
1.0
 10
220.488
 20
17.7978
  0
LWPOLYLINE
  5
3402
330
5AAA
100
AcDbEntity
  8
TOP_S
100
AcDbPolyline
 90
        2
 70
     0
 43
0.0
 10
218.834
 20
17.7978
 42
1.0
 10
218.834
 20
17.6962
  0
LWPOLYLINE
  5
3406
330
5AAA
100
AcDbEntity
  8
TOP_S
100
AcDbPolyline
 90
        2
 70
     0
 43
0.0
 10
221.188
 20
16.047
 10
221.188
 20
16.747
  0
LWPOLYLINE
  5
340A
330
5AAA
100
AcDbEntity
  8
TOP_S
100
AcDbPolyline
 90
        2
 70
     0
 43
0.0
 10
221.2388
 20
16.747
 42
1.0
 10
221.1372
 20
16.747
  0
LWPOLYLINE
  5
340E
330
5AAA
100
AcDbEntity
  8
TOP_S
100
AcDbPolyline
 90
        2
 70
     0
 43
0.0
 10
221.1372
 20
16.047
 42
1.0
 10
221.2388
 20
16.047
  0
LWPOLYLINE
  5
3412
330
5AAA
100
AcDbEntity
  8
TOP_S
100
AcDbPolyline
 90
        2
 70
     0
 43
0.0
 10
221.188
 20
16.747
 10
221.188
 20
17.447
  0
LWPOLYLINE
  5
3416
330
5AAA
100
AcDbEntity
  8
TOP_S
100
AcDbPolyline
 90
        2
 70
     0
 43
0.0
 10
221.2388
 20
17.447
 42
1.0
 10
221.1372
 20
17.447
  0
LWPOLYLINE
  5
341A
330
5AAA
100
AcDbEntity
  8
TOP_S
100
AcDbPolyline
 90
        2
 70
     0
 43
0.0
 10
221.1372
 20
16.747
 42
1.0
 10
221.2388
 20
16.747
  0
LWPOLYLINE
  5
341E
330
5AAA
100
AcDbEntity
  8
TOP_S
100
AcDbPolyline
 90
        2
 70
     0
 43
0.0
 10
221.188
 20
16.747
 10
221.788
 20
16.147
  0
LWPOLYLINE
  5
3422
330
5AAA
100
AcDbEntity
  8
TOP_S
100
AcDbPolyline
 90
        2
 70
     0
 43
0.0
 10
221.7521
 20
16.1111
 42
1.0
 10
221.8239
 20
16.1829
  0
LWPOLYLINE
  5
3426
330
5AAA
100
AcDbEntity
  8
TOP_S
100
AcDbPolyline
 90
        2
 70
     0
 43
0.0
 10
221.2239
 20
16.7829
 42
1.0
 10
221.1521
 20
16.7111
  0
LWPOLYLINE
  5
342A
330
5AAA
100
AcDbEntity
  8
TOP_S
100
AcDbPolyline
 90
        2
 70
     0
 43
0.0
 10
221.788
 20
16.147
 10
221.788
 20
17.347
  0
LWPOLYLINE
  5
342E
330
5AAA
100
AcDbEntity
  8
TOP_S
100
AcDbPolyline
 90
        2
 70
     0
 43
0.0
 10
221.8388
 20
17.347
 42
1.0
 10
221.7372
 20
17.347
  0
LWPOLYLINE
  5
3432
330
5AAA
100
AcDbEntity
  8
TOP_S
100
AcDbPolyline
 90
        2
 70
     0
 43
0.0
 10
221.7372
 20
16.147
 42
1.0
 10
221.8388
 20
16.147
  0
LWPOLYLINE
  5
3436
330
5AAA
100
AcDbEntity
  8
TOP_S
100
AcDbPolyline
 90
        2
 70
     0
 43
0.0
 10
221.788
 20
17.347
 10
221.188
 20
16.747
  0
LWPOLYLINE
  5
343A
330
5AAA
100
AcDbEntity
  8
TOP_S
100
AcDbPolyline
 90
        2
 70
     0
 43
0.0
 10
221.1521
 20
16.7829
 42
1.0
 10
221.2239
 20
16.7111
  0
LWPOLYLINE
  5
343E
330
5AAA
100
AcDbEntity
  8
TOP_S
100
AcDbPolyline
 90
        2
 70
     0
 43
0.0
 10
221.8239
 20
17.3111
 42
1.0
 10
221.7521
 20
17.3829
  0
LWPOLYLINE
  5
3446
330
5AAA
100
AcDbEntity
  8
TOP_S
100
AcDbPolyline
 90
        2
 70
     0
 43
0.0
 10
222.488
 20
9.397
 10
224.142
 20
9.397
  0
LWPOLYLINE
  5
344A
330
5AAA
100
AcDbEntity
  8
TOP_S
100
AcDbPolyline
 90
        2
 70
     0
 43
0.0
 10
224.142
 20
9.3462
 42
1.0
 10
224.142
 20
9.447799999999999
  0
LWPOLYLINE
  5
344E
330
5AAA
100
AcDbEntity
  8
TOP_S
100
AcDbPolyline
 90
        2
 70
     0
 43
0.0
 10
222.488
 20
9.447799999999999
 42
1.0
 10
222.488
 20
9.3462
  0
LWPOLYLINE
  5
3452
330
5AAA
100
AcDbEntity
  8
TOP_S
100
AcDbPolyline
 90
        2
 70
     0
 43
0.0
 10
224.142
 20
9.397
 10
224.142
 20
11.397
  0
LWPOLYLINE
  5
3456
330
5AAA
100
AcDbEntity
  8
TOP_S
100
AcDbPolyline
 90
        2
 70
     0
 43
0.0
 10
224.1928
 20
11.397
 42
1.0
 10
224.0912
 20
11.397
  0
LWPOLYLINE
  5
345A
330
5AAA
100
AcDbEntity
  8
TOP_S
100
AcDbPolyline
 90
        2
 70
     0
 43
0.0
 10
224.0912
 20
9.397
 42
1.0
 10
224.1928
 20
9.397
  0
LWPOLYLINE
  5
345E
330
5AAA
100
AcDbEntity
  8
TOP_S
100
AcDbPolyline
 90
        2
 70
     0
 43
0.0
 10
224.142
 20
11.397
 10
222.488
 20
11.397
  0
LWPOLYLINE
  5
3462
330
5AAA
100
AcDbEntity
  8
TOP_S
100
AcDbPolyline
 90
        2
 70
     0
 43
0.0
 10
222.488
 20
11.4478
 42
1.0
 10
222.488
 20
11.3462
  0
LWPOLYLINE
  5
3466
330
5AAA
100
AcDbEntity
  8
TOP_S
100
AcDbPolyline
 90
        2
 70
     0
 43
0.0
 10
224.142
 20
11.3462
 42
1.0
 10
224.142
 20
11.4478
  0
LWPOLYLINE
  5
346A
330
5AAA
100
AcDbEntity
  8
TOP_S
100
AcDbPolyline
 90
        2
 70
     0
 43
0.0
 10
220.488
 20
9.397
 10
218.834
 20
9.397
  0
LWPOLYLINE
  5
346E
330
5AAA
100
AcDbEntity
  8
TOP_S
100
AcDbPolyline
 90
        2
 70
     0
 43
0.0
 10
218.834
 20
9.447799999999999
 42
1.0
 10
218.834
 20
9.3462
  0
LWPOLYLINE
  5
3472
330
5AAA
100
AcDbEntity
  8
TOP_S
100
AcDbPolyline
 90
        2
 70
     0
 43
0.0
 10
220.488
 20
9.3462
 42
1.0
 10
220.488
 20
9.447799999999999
  0
LWPOLYLINE
  5
3476
330
5AAA
100
AcDbEntity
  8
TOP_S
100
AcDbPolyline
 90
        2
 70
     0
 43
0.0
 10
218.834
 20
9.397
 10
218.834
 20
11.397
  0
LWPOLYLINE
  5
347A
330
5AAA
100
AcDbEntity
  8
TOP_S
100
AcDbPolyline
 90
        2
 70
     0
 43
0.0
 10
218.8848
 20
11.397
 42
1.0
 10
218.7832
 20
11.397
  0
LWPOLYLINE
  5
347E
330
5AAA
100
AcDbEntity
  8
TOP_S
100
AcDbPolyline
 90
        2
 70
     0
 43
0.0
 10
218.7832
 20
9.397
 42
1.0
 10
218.8848
 20
9.397
  0
LWPOLYLINE
  5
3482
330
5AAA
100
AcDbEntity
  8
TOP_S
100
AcDbPolyline
 90
        2
 70
     0
 43
0.0
 10
218.834
 20
11.397
 10
220.488
 20
11.397
  0
LWPOLYLINE
  5
3486
330
5AAA
100
AcDbEntity
  8
TOP_S
100
AcDbPolyline
 90
        2
 70
     0
 43
0.0
 10
220.488
 20
11.3462
 42
1.0
 10
220.488
 20
11.4478
  0
LWPOLYLINE
  5
348A
330
5AAA
100
AcDbEntity
  8
TOP_S
100
AcDbPolyline
 90
        2
 70
     0
 43
0.0
 10
218.834
 20
11.4478
 42
1.0
 10
218.834
 20
11.3462
  0
LWPOLYLINE
  5
348E
330
5AAA
100
AcDbEntity
  8
TOP_S
100
AcDbPolyline
 90
        2
 70
     0
 43
0.0
 10
221.188
 20
9.697
 10
221.188
 20
10.397
  0
LWPOLYLINE
  5
3492
330
5AAA
100
AcDbEntity
  8
TOP_S
100
AcDbPolyline
 90
        2
 70
     0
 43
0.0
 10
221.2388
 20
10.397
 42
1.0
 10
221.1372
 20
10.397
  0
LWPOLYLINE
  5
3496
330
5AAA
100
AcDbEntity
  8
TOP_S
100
AcDbPolyline
 90
        2
 70
     0
 43
0.0
 10
221.1372
 20
9.697
 42
1.0
 10
221.2388
 20
9.697
  0
LWPOLYLINE
  5
349A
330
5AAA
100
AcDbEntity
  8
TOP_S
100
AcDbPolyline
 90
        2
 70
     0
 43
0.0
 10
221.188
 20
10.397
 10
221.188
 20
11.097
  0
LWPOLYLINE
  5
349E
330
5AAA
100
AcDbEntity
  8
TOP_S
100
AcDbPolyline
 90
        2
 70
     0
 43
0.0
 10
221.2388
 20
11.097
 42
1.0
 10
221.1372
 20
11.097
  0
LWPOLYLINE
  5
34A2
330
5AAA
100
AcDbEntity
  8
TOP_S
100
AcDbPolyline
 90
        2
 70
     0
 43
0.0
 10
221.1372
 20
10.397
 42
1.0
 10
221.2388
 20
10.397
  0
LWPOLYLINE
  5
34A6
330
5AAA
100
AcDbEntity
  8
TOP_S
100
AcDbPolyline
 90
        2
 70
     0
 43
0.0
 10
221.188
 20
10.397
 10
221.788
 20
9.797
  0
LWPOLYLINE
  5
34AA
330
5AAA
100
AcDbEntity
  8
TOP_S
100
AcDbPolyline
 90
        2
 70
     0
 43
0.0
 10
221.7521
 20
9.761099999999999
 42
1.0
 10
221.8239
 20
9.8329
  0
LWPOLYLINE
  5
34AE
330
5AAA
100
AcDbEntity
  8
TOP_S
100
AcDbPolyline
 90
        2
 70
     0
 43
0.0
 10
221.2239
 20
10.4329
 42
1.0
 10
221.1521
 20
10.3611
  0
LWPOLYLINE
  5
34B2
330
5AAA
100
AcDbEntity
  8
TOP_S
100
AcDbPolyline
 90
        2
 70
     0
 43
0.0
 10
221.788
 20
9.797
 10
221.788
 20
10.997
  0
LWPOLYLINE
  5
34B6
330
5AAA
100
AcDbEntity
  8
TOP_S
100
AcDbPolyline
 90
        2
 70
     0
 43
0.0
 10
221.8388
 20
10.997
 42
1.0
 10
221.7372
 20
10.997
  0
LWPOLYLINE
  5
34BA
330
5AAA
100
AcDbEntity
  8
TOP_S
100
AcDbPolyline
 90
        2
 70
     0
 43
0.0
 10
221.7372
 20
9.797
 42
1.0
 10
221.8388
 20
9.797
  0
LWPOLYLINE
  5
34BE
330
5AAA
100
AcDbEntity
  8
TOP_S
100
AcDbPolyline
 90
        2
 70
     0
 43
0.0
 10
221.788
 20
10.997
 10
221.188
 20
10.397
  0
LWPOLYLINE
  5
34C2
330
5AAA
100
AcDbEntity
  8
TOP_S
100
AcDbPolyline
 90
        2
 70
     0
 43
0.0
 10
221.1521
 20
10.4329
 42
1.0
 10
221.2239
 20
10.3611
  0
LWPOLYLINE
  5
34C6
330
5AAA
100
AcDbEntity
  8
TOP_S
100
AcDbPolyline
 90
        2
 70
     0
 43
0.0
 10
221.8239
 20
10.9611
 42
1.0
 10
221.7521
 20
11.0329
  0
LWPOLYLINE
  5
34CE
330
5AAA
100
AcDbEntity
  8
TOP_S
100
AcDbPolyline
 90
        2
 70
     0
 43
0.0
 10
222.488
 20
12.572
 10
224.142
 20
12.572
  0
LWPOLYLINE
  5
34D2
330
5AAA
100
AcDbEntity
  8
TOP_S
100
AcDbPolyline
 90
        2
 70
     0
 43
0.0
 10
224.142
 20
12.5212
 42
1.0
 10
224.142
 20
12.6228
  0
LWPOLYLINE
  5
34D6
330
5AAA
100
AcDbEntity
  8
TOP_S
100
AcDbPolyline
 90
        2
 70
     0
 43
0.0
 10
222.488
 20
12.6228
 42
1.0
 10
222.488
 20
12.5212
  0
LWPOLYLINE
  5
34DA
330
5AAA
100
AcDbEntity
  8
TOP_S
100
AcDbPolyline
 90
        2
 70
     0
 43
0.0
 10
224.142
 20
12.572
 10
224.142
 20
14.572
  0
LWPOLYLINE
  5
34DE
330
5AAA
100
AcDbEntity
  8
TOP_S
100
AcDbPolyline
 90
        2
 70
     0
 43
0.0
 10
224.1928
 20
14.572
 42
1.0
 10
224.0912
 20
14.572
  0
LWPOLYLINE
  5
34E2
330
5AAA
100
AcDbEntity
  8
TOP_S
100
AcDbPolyline
 90
        2
 70
     0
 43
0.0
 10
224.0912
 20
12.572
 42
1.0
 10
224.1928
 20
12.572
  0
LWPOLYLINE
  5
34E6
330
5AAA
100
AcDbEntity
  8
TOP_S
100
AcDbPolyline
 90
        2
 70
     0
 43
0.0
 10
224.142
 20
14.572
 10
222.488
 20
14.572
  0
LWPOLYLINE
  5
34EA
330
5AAA
100
AcDbEntity
  8
TOP_S
100
AcDbPolyline
 90
        2
 70
     0
 43
0.0
 10
222.488
 20
14.6228
 42
1.0
 10
222.488
 20
14.5212
  0
LWPOLYLINE
  5
34EE
330
5AAA
100
AcDbEntity
  8
TOP_S
100
AcDbPolyline
 90
        2
 70
     0
 43
0.0
 10
224.142
 20
14.5212
 42
1.0
 10
224.142
 20
14.6228
  0
LWPOLYLINE
  5
34F2
330
5AAA
100
AcDbEntity
  8
TOP_S
100
AcDbPolyline
 90
        2
 70
     0
 43
0.0
 10
220.488
 20
12.572
 10
218.834
 20
12.572
  0
LWPOLYLINE
  5
34F6
330
5AAA
100
AcDbEntity
  8
TOP_S
100
AcDbPolyline
 90
        2
 70
     0
 43
0.0
 10
218.834
 20
12.6228
 42
1.0
 10
218.834
 20
12.5212
  0
LWPOLYLINE
  5
34FA
330
5AAA
100
AcDbEntity
  8
TOP_S
100
AcDbPolyline
 90
        2
 70
     0
 43
0.0
 10
220.488
 20
12.5212
 42
1.0
 10
220.488
 20
12.6228
  0
LWPOLYLINE
  5
34FE
330
5AAA
100
AcDbEntity
  8
TOP_S
100
AcDbPolyline
 90
        2
 70
     0
 43
0.0
 10
218.834
 20
12.572
 10
218.834
 20
14.572
  0
LWPOLYLINE
  5
3502
330
5AAA
100
AcDbEntity
  8
TOP_S
100
AcDbPolyline
 90
        2
 70
     0
 43
0.0
 10
218.8848
 20
14.572
 42
1.0
 10
218.7832
 20
14.572
  0
LWPOLYLINE
  5
3506
330
5AAA
100
AcDbEntity
  8
TOP_S
100
AcDbPolyline
 90
        2
 70
     0
 43
0.0
 10
218.7832
 20
12.572
 42
1.0
 10
218.8848
 20
12.572
  0
LWPOLYLINE
  5
350A
330
5AAA
100
AcDbEntity
  8
TOP_S
100
AcDbPolyline
 90
        2
 70
     0
 43
0.0
 10
218.834
 20
14.572
 10
220.488
 20
14.572
  0
LWPOLYLINE
  5
350E
330
5AAA
100
AcDbEntity
  8
TOP_S
100
AcDbPolyline
 90
        2
 70
     0
 43
0.0
 10
220.488
 20
14.5212
 42
1.0
 10
220.488
 20
14.6228
  0
LWPOLYLINE
  5
3512
330
5AAA
100
AcDbEntity
  8
TOP_S
100
AcDbPolyline
 90
        2
 70
     0
 43
0.0
 10
218.834
 20
14.6228
 42
1.0
 10
218.834
 20
14.5212
  0
LWPOLYLINE
  5
3516
330
5AAA
100
AcDbEntity
  8
TOP_S
100
AcDbPolyline
 90
        2
 70
     0
 43
0.0
 10
221.188
 20
12.872
 10
221.188
 20
13.572
  0
LWPOLYLINE
  5
351A
330
5AAA
100
AcDbEntity
  8
TOP_S
100
AcDbPolyline
 90
        2
 70
     0
 43
0.0
 10
221.2388
 20
13.572
 42
1.0
 10
221.1372
 20
13.572
  0
LWPOLYLINE
  5
351E
330
5AAA
100
AcDbEntity
  8
TOP_S
100
AcDbPolyline
 90
        2
 70
     0
 43
0.0
 10
221.1372
 20
12.872
 42
1.0
 10
221.2388
 20
12.872
  0
LWPOLYLINE
  5
3522
330
5AAA
100
AcDbEntity
  8
TOP_S
100
AcDbPolyline
 90
        2
 70
     0
 43
0.0
 10
221.188
 20
13.572
 10
221.188
 20
14.272
  0
LWPOLYLINE
  5
3526
330
5AAA
100
AcDbEntity
  8
TOP_S
100
AcDbPolyline
 90
        2
 70
     0
 43
0.0
 10
221.2388
 20
14.272
 42
1.0
 10
221.1372
 20
14.272
  0
LWPOLYLINE
  5
352A
330
5AAA
100
AcDbEntity
  8
TOP_S
100
AcDbPolyline
 90
        2
 70
     0
 43
0.0
 10
221.1372
 20
13.572
 42
1.0
 10
221.2388
 20
13.572
  0
LWPOLYLINE
  5
352E
330
5AAA
100
AcDbEntity
  8
TOP_S
100
AcDbPolyline
 90
        2
 70
     0
 43
0.0
 10
221.188
 20
13.572
 10
221.788
 20
12.972
  0
LWPOLYLINE
  5
3532
330
5AAA
100
AcDbEntity
  8
TOP_S
100
AcDbPolyline
 90
        2
 70
     0
 43
0.0
 10
221.7521
 20
12.9361
 42
1.0
 10
221.8239
 20
13.0079
  0
LWPOLYLINE
  5
3536
330
5AAA
100
AcDbEntity
  8
TOP_S
100
AcDbPolyline
 90
        2
 70
     0
 43
0.0
 10
221.2239
 20
13.6079
 42
1.0
 10
221.1521
 20
13.5361
  0
LWPOLYLINE
  5
353A
330
5AAA
100
AcDbEntity
  8
TOP_S
100
AcDbPolyline
 90
        2
 70
     0
 43
0.0
 10
221.788
 20
12.972
 10
221.788
 20
14.172
  0
LWPOLYLINE
  5
353E
330
5AAA
100
AcDbEntity
  8
TOP_S
100
AcDbPolyline
 90
        2
 70
     0
 43
0.0
 10
221.8388
 20
14.172
 42
1.0
 10
221.7372
 20
14.172
  0
LWPOLYLINE
  5
3542
330
5AAA
100
AcDbEntity
  8
TOP_S
100
AcDbPolyline
 90
        2
 70
     0
 43
0.0
 10
221.7372
 20
12.972
 42
1.0
 10
221.8388
 20
12.972
  0
LWPOLYLINE
  5
3546
330
5AAA
100
AcDbEntity
  8
TOP_S
100
AcDbPolyline
 90
        2
 70
     0
 43
0.0
 10
221.788
 20
14.172
 10
221.188
 20
13.572
  0
LWPOLYLINE
  5
354A
330
5AAA
100
AcDbEntity
  8
TOP_S
100
AcDbPolyline
 90
        2
 70
     0
 43
0.0
 10
221.1521
 20
13.6079
 42
1.0
 10
221.2239
 20
13.5361
  0
LWPOLYLINE
  5
354E
330
5AAA
100
AcDbEntity
  8
TOP_S
100
AcDbPolyline
 90
        2
 70
     0
 43
0.0
 10
221.8239
 20
14.1361
 42
1.0
 10
221.7521
 20
14.2079
  0
CIRCLE
  5
3596
330
5AAA
100
AcDbEntity
  8
PIN_HEADER
100
AcDbCircle
 10
254.762
 20
17.763
 30
0.0
 40
0.508
  0
CIRCLE
  5
359B
330
5AAA
100
AcDbEntity
  8
PIN_HEADER
100
AcDbCircle
 10
257.302
 20
17.763
 30
0.0
 40
0.508
  0
CIRCLE
  5
35A0
330
5AAA
100
AcDbEntity
  8
PIN_HEADER
100
AcDbCircle
 10
254.762
 20
15.223
 30
0.0
 40
0.508
  0
CIRCLE
  5
35A5
330
5AAA
100
AcDbEntity
  8
PIN_HEADER
100
AcDbCircle
 10
257.302
 20
15.223
 30
0.0
 40
0.508
  0
CIRCLE
  5
35AA
330
5AAA
100
AcDbEntity
  8
PIN_HEADER
100
AcDbCircle
 10
254.762
 20
12.683
 30
0.0
 40
0.508
  0
CIRCLE
  5
35AF
330
5AAA
100
AcDbEntity
  8
PIN_HEADER
100
AcDbCircle
 10
257.302
 20
12.683
 30
0.0
 40
0.508
  0
CIRCLE
  5
35B4
330
5AAA
100
AcDbEntity
  8
PIN_HEADER
100
AcDbCircle
 10
254.762
 20
10.143
 30
0.0
 40
0.508
  0
CIRCLE
  5
35B9
330
5AAA
100
AcDbEntity
  8
PIN_HEADER
100
AcDbCircle
 10
257.302
 20
10.143
 30
0.0
 40
0.508
  0
CIRCLE
  5
35BE
330
5AAA
100
AcDbEntity
  8
PIN_HEADER
100
AcDbCircle
 10
254.762
 20
7.603
 30
0.0
 40
0.508
  0
CIRCLE
  5
35C3
330
5AAA
100
AcDbEntity
  8
PIN_HEADER
100
AcDbCircle
 10
257.302
 20
7.603
 30
0.0
 40
0.508
  0
LWPOLYLINE
  5
3782
330
5AAA
100
AcDbEntity
  8
Dimension
100
AcDbPolyline
 90
        2
 70
     0
 43
0.0
 10
209.423
 20
15.477
 10
209.423
 20
9.889
  0
LWPOLYLINE
  5
378E
330
5AAA
100
AcDbEntity
  8
Dimension
100
AcDbPolyline
 90
        2
 70
     0
 43
0.0
 10
209.423
 20
9.889
 10
203.835
 20
9.889
  0
LWPOLYLINE
  5
379A
330
5AAA
100
AcDbEntity
  8
Dimension
100
AcDbPolyline
 90
        2
 70
     0
 43
0.0
 10
203.835
 20
9.889
 10
203.835
 20
11.032
  0
LWPOLYLINE
  5
37A6
330
5AAA
100
AcDbEntity
  8
Dimension
100
AcDbPolyline
 90
        2
 70
     0
 43
0.0
 10
203.835
 20
14.334
 10
203.835
 20
15.477
  0
LWPOLYLINE
  5
37B2
330
5AAA
100
AcDbEntity
  8
Dimension
100
AcDbPolyline
 90
        2
 70
     0
 43
0.0
 10
203.835
 20
15.477
 10
209.423
 20
15.477
  0
LWPOLYLINE
  5
37BE
330
5AAA
100
AcDbEntity
  8
Dimension
100
AcDbPolyline
 90
        2
 70
     0
 43
0.0
 10
200.025
 20
11.032
 10
203.835
 20
11.032
  0
LWPOLYLINE
  5
37CA
330
5AAA
100
AcDbEntity
  8
Dimension
100
AcDbPolyline
 90
        2
 70
     0
 43
0.0
 10
200.025
 20
14.334
 10
203.835
 20
14.334
  0
LWPOLYLINE
  5
3806
330
5AAA
100
AcDbEntity
  8
Dimension
100
AcDbPolyline
 90
        2
 70
     0
 43
0.0
 10
200.027
 20
14.332
 10
200.026
 20
11.031
  0
LWPOLYLINE
  5
3818
330
5AAA
100
AcDbEntity
  8
Dimension
100
AcDbPolyline
 90
        2
 70
     0
 43
0.0
 10
115.57
 20
15.477
 10
115.57
 20
9.889
  0
LWPOLYLINE
  5
3824
330
5AAA
100
AcDbEntity
  8
Dimension
100
AcDbPolyline
 90
        2
 70
     0
 43
0.0
 10
115.57
 20
9.889
 10
109.982
 20
9.889
  0
LWPOLYLINE
  5
3830
330
5AAA
100
AcDbEntity
  8
Dimension
100
AcDbPolyline
 90
        2
 70
     0
 43
0.0
 10
109.982
 20
9.889
 10
109.982
 20
11.032
  0
LWPOLYLINE
  5
383C
330
5AAA
100
AcDbEntity
  8
Dimension
100
AcDbPolyline
 90
        2
 70
     0
 43
0.0
 10
109.982
 20
14.334
 10
109.982
 20
15.477
  0
LWPOLYLINE
  5
3848
330
5AAA
100
AcDbEntity
  8
Dimension
100
AcDbPolyline
 90
        2
 70
     0
 43
0.0
 10
109.982
 20
15.477
 10
115.57
 20
15.477
  0
LWPOLYLINE
  5
3854
330
5AAA
100
AcDbEntity
  8
Dimension
100
AcDbPolyline
 90
        2
 70
     0
 43
0.0
 10
106.172
 20
11.032
 10
109.982
 20
11.032
  0
LWPOLYLINE
  5
3860
330
5AAA
100
AcDbEntity
  8
Dimension
100
AcDbPolyline
 90
        2
 70
     0
 43
0.0
 10
106.172
 20
14.334
 10
109.982
 20
14.334
  0
LWPOLYLINE
  5
389C
330
5AAA
100
AcDbEntity
  8
Dimension
100
AcDbPolyline
 90
        2
 70
     0
 43
0.0
 10
106.174
 20
14.332
 10
106.173
 20
11.031
  0
LWPOLYLINE
  5
38AE
330
5AAA
100
AcDbEntity
  8
Dimension
100
AcDbPolyline
 90
        2
 70
     0
 43
0.0
 10
18.796
 20
15.477
 10
18.796
 20
9.889
  0
LWPOLYLINE
  5
38BA
330
5AAA
100
AcDbEntity
  8
Dimension
100
AcDbPolyline
 90
        2
 70
     0
 43
0.0
 10
18.796
 20
9.889
 10
13.208
 20
9.889
  0
LWPOLYLINE
  5
38C6
330
5AAA
100
AcDbEntity
  8
Dimension
100
AcDbPolyline
 90
        2
 70
     0
 43
0.0
 10
13.208
 20
9.889
 10
13.208
 20
11.032
  0
LWPOLYLINE
  5
38D2
330
5AAA
100
AcDbEntity
  8
Dimension
100
AcDbPolyline
 90
        2
 70
     0
 43
0.0
 10
13.208
 20
14.334
 10
13.208
 20
15.477
  0
LWPOLYLINE
  5
38DE
330
5AAA
100
AcDbEntity
  8
Dimension
100
AcDbPolyline
 90
        2
 70
     0
 43
0.0
 10
13.208
 20
15.477
 10
18.796
 20
15.477
  0
LWPOLYLINE
  5
38EA
330
5AAA
100
AcDbEntity
  8
Dimension
100
AcDbPolyline
 90
        2
 70
     0
 43
0.0
 10
9.398
 20
11.032
 10
13.208
 20
11.032
  0
LWPOLYLINE
  5
38F6
330
5AAA
100
AcDbEntity
  8
Dimension
100
AcDbPolyline
 90
        2
 70
     0
 43
0.0
 10
9.398
 20
14.334
 10
13.208
 20
14.334
  0
LWPOLYLINE
  5
3932
330
5AAA
100
AcDbEntity
  8
Dimension
100
AcDbPolyline
 90
        2
 70
     0
 43
0.0
 10
9.399999999999999
 20
14.332
 10
9.398999999999997
 20
11.031
  0
LINE
  5
5A6E
330
5AAA
100
AcDbEntity
  8
Area
100
AcDbLine
 10
21.082
 20
21.0396
 30
0.0
 11
60.4
 21
21.0396
 31
0.0
  0
LINE
  5
5A6F
330
5AAA
100
AcDbEntity
  8
Area
100
AcDbLine
 10
21.082
 20
5.037599999999999
 30
0.0
 11
21.082
 21
21.0396
 31
0.0
  0
LINE
  5
5A70
330
5AAA
100
AcDbEntity
  8
Area
100
AcDbLine
 10
21.082
 20
5.037599999999999
 30
0.0
 11
60.40000000000001
 21
5.037599999999999
 31
0.0
  0
LINE
  5
5A71
330
5AAA
100
AcDbEntity
  8
Area
100
AcDbLine
 10
60.4
 20
5.037599999999999
 30
0.0
 11
60.4
 21
21.0396
 31
0.0
  0
LINE
  5
5A72
330
5AAA
100
AcDbEntity
  8
Area
100
AcDbLine
 10
62.4
 20
5.037599999999999
 30
0.0
 11
62.4
 21
21.0396
 31
0.0
  0
LINE
  5
5A73
330
5AAA
100
AcDbEntity
  8
Area
100
AcDbLine
 10
62.40000000000001
 20
5.037599999999999
 30
0.0
 11
96.67846053398276
 21
5.037599999999999
 31
0.0
  0
LINE
  5
5A74
330
5AAA
100
AcDbEntity
  8
Area
100
AcDbLine
 10
62.40000000000001
 20
21.0396
 30
0.0
 11
96.67846053398273
 21
21.0396
 31
0.0
  0
LINE
  5
5A75
330
5AAA
100
AcDbEntity
  8
Area
100
AcDbLine
 10
96.67846053398273
 20
5.037599999999999
 30
0.0
 11
96.67846053398273
 21
21.0396
 31
0.0
  0
LINE
  5
5A76
330
5AAA
100
AcDbEntity
  8
Area
100
AcDbLine
 10
118.3161162898209
 20
5.037599999999999
 30
0.0
 11
157.7052463603538
 21
5.037599999999999
 31
0.0
  0
LINE
  5
5A77
330
5AAA
100
AcDbEntity
  8
Area
100
AcDbLine
 10
118.3161162898209
 20
21.0396
 30
0.0
 11
157.7052463603537
 21
21.0396
 31
0.0
  0
LINE
  5
5A78
330
5AAA
100
AcDbEntity
  8
Area
100
AcDbLine
 10
157.7052463603538
 20
5.037599999999999
 30
0.0
 11
157.7052463603538
 21
21.03959999999999
 31
0.0
  0
LINE
  5
5A79
330
5AAA
100
AcDbEntity
  8
Area
100
AcDbLine
 10
160.3604389875032
 20
5.037599999999998
 30
0.0
 11
160.3604389875032
 21
21.03960000000001
 31
0.0
  0
LINE
  5
5A7A
330
5AAA
100
AcDbEntity
  8
Area
100
AcDbLine
 10
118.3161162898209
 20
5.037599999999999
 30
0.0
 11
118.3161162898209
 21
21.0396
 31
0.0
  0
LINE
  5
5A7B
330
5AAA
100
AcDbEntity
  8
Area
100
AcDbLine
 10
160.3604389875032
 20
5.037599999999999
 30
0.0
 11
194.7
 21
5.037599999999999
 31
0.0
  0
LINE
  5
5A7C
330
5AAA
100
AcDbEntity
  8
Area
100
AcDbLine
 10
160.3604389875032
 20
21.0396
 30
0.0
 11
194.7
 21
21.0396
 31
0.0
  0
LINE
  5
5A7D
330
5AAA
100
AcDbEntity
  8
Area
100
AcDbLine
 10
194.7
 20
5.037599999999999
 30
0.0
 11
194.7
 21
21.03959999999999
 31
0.0
  0
HATCH
  5
5A88
330
5AAA
100
AcDbEntity
  8
Area
100
AcDbHatch
 10
0.0
 20
0.0
 30
0.0
210
0.0
220
0.0
230
1.0
  2
SOLID
 70
     1
 71
     0
 91
        1
 92
        0
 93
        4
 72
     1
 10
21.082
 20
5.037599999999999
 11
21.082
 21
21.0396
 72
     1
 10
21.082
 20
21.0396
 11
60.4
 21
21.0396
 72
     1
 10
60.4
 20
21.0396
 11
60.4
 21
5.037599999999998
 72
     1
 10
60.4
 20
5.037599999999999
 11
21.082
 21
5.037599999999999
 97
        0
 75
     0
 76
     1
 98
        0
  0
HATCH
  5
5A89
330
5AAA
100
AcDbEntity
  8
Area
100
AcDbHatch
 10
0.0
 20
0.0
 30
0.0
210
0.0
220
0.0
230
1.0
  2
SOLID
 70
     1
 71
     0
 91
        1
 92
        0
 93
        4
 72
     1
 10
62.4
 20
5.037599999999999
 11
62.4
 21
21.0396
 72
     1
 10
62.4
 20
21.0396
 11
96.67846053398273
 21
21.0396
 72
     1
 10
96.67846053398273
 20
21.0396
 11
96.67846053398273
 21
5.037599999999998
 72
     1
 10
96.67846053398273
 20
5.037599999999999
 11
62.4
 21
5.037599999999999
 97
        0
 75
     0
 76
     1
 98
        0
  0
HATCH
  5
5A8A
330
5AAA
100
AcDbEntity
  8
Area
100
AcDbHatch
 10
0.0
 20
0.0
 30
0.0
210
0.0
220
0.0
230
1.0
  2
SOLID
 70
     1
 71
     0
 91
        1
 92
        0
 93
        4
 72
     1
 10
118.3161162898209
 20
5.037599999999999
 11
157.7052463603538
 21
5.037599999999999
 72
     1
 10
157.7052463603538
 20
5.037599999999999
 11
157.7052463603538
 21
21.03959999999999
 72
     1
 10
157.7052463603538
 20
21.03959999999999
 11
118.3161162898209
 21
21.0396
 72
     1
 10
118.3161162898209
 20
21.0396
 11
118.3161162898209
 21
5.037599999999998
 97
        0
 75
     0
 76
     1
 98
        0
  0
HATCH
  5
5A8B
330
5AAA
100
AcDbEntity
  8
Area
100
AcDbHatch
 10
0.0
 20
0.0
 30
0.0
210
0.0
220
0.0
230
1.0
  2
SOLID
 70
     1
 71
     0
 91
        1
 92
        0
 93
        4
 72
     1
 10
160.3604389875032
 20
5.037599999999998
 11
160.3604389875032
 21
21.03960000000001
 72
     1
 10
160.3604389875032
 20
21.03960000000001
 11
194.7
 21
21.0396
 72
     1
 10
194.7
 20
21.0396
 11
194.7
 21
5.037599999999998
 72
     1
 10
194.7
 20
5.037599999999999
 11
160.3604389875032
 21
5.037599999999998
 97
        0
 75
     0
 76
     1
 98
        0
  0
DIMENSION
  5
5A83
330
5AAA
100
AcDbEntity
  8
Measur
100
AcDbDimension
280
     0
  2
*D15
 10
261.874
 20
30.856
 30
0.0
 11
130.937
 21
32.356
 31
0.0
 70
    32
 71
     5
 42
261.874
 73
     0
 74
     0
 75
     0
  3
QCADDimStyle
100
AcDbAlignedDimension
 13
-0.0000000000000036
 23
16.36600000000001
 33
0.0
 14
261.874
 24
22.71599999999999
 34
0.0
100
AcDbRotatedDimension
1001
ACAD
1000
DSTYLE
1002
{
1070
   279
1070
     2
1070
    41
1040
2.0
1070
   176
1070
     0
1070
   177
1070
     0
1070
   178
1070
     0
1070
    44
1040
1.0
1070
    42
1040
0.5
1070
   147
1040
0.5
1070
   140
1040
2.0
1002
}
  0
DIMENSION
  5
5A84
330
5AAA
100
AcDbEntity
  8
Measur
100
AcDbDimension
280
     0
  2
*D16
 10
266.4
 20
2.395999999999999
 30
0.0
 11
264.9
 21
12.556
 31
0.0
 70
    32
 71
     5
 42
20.31999999999999
 73
     0
 74
     0
 75
     0
  3
QCADDimStyle
100
AcDbAlignedDimension
 13
261.874
 23
22.71599999999999
 33
0.0
 14
261.874
 24
2.396
 34
0.0
 50
90.0
100
AcDbRotatedDimension
1001
ACAD
1000
DSTYLE
1002
{
1070
   279
1070
     2
1070
    41
1040
2.0
1070
   176
1070
     0
1070
   177
1070
     0
1070
   178
1070
     0
1070
    44
1040
1.0
1070
    42
1040
0.5
1070
   147
1040
0.5
1070
   140
1040
2.0
1002
}
  0
DIMENSION
  5
5A85
330
5AAA
100
AcDbEntity
  8
Measur
100
AcDbDimension
280
     0
  2
*D17
 10
232.029
 20
18.271
 30
0.0
 11
219.0242380952381
 21
19.771
 31
0.0
 70
    36
  1
R<>
 71
     5
 42
1.600000000000023
 73
     0
 74
     0
 75
     0
  3
QCADDimStyle
100
AcDbRadialDimension
 15
230.429
 25
18.271
 35
0.0
 40
0.0
1001
ACAD
1000
DSTYLE
1002
{
1070
   279
1070
     2
1070
    41
1040
2.0
1070
   176
1070
     0
1070
   177
1070
     0
1070
   178
1070
     0
1070
    44
1040
1.0
1070
    42
1040
0.5
1070
   147
1040
0.5
1070
   140
1040
2.0
1002
}
  0
DIMENSION
  5
5A86
330
5AAA
100
AcDbEntity
  8
Measur
100
AcDbDimension
280
     0
  2
*D18
 10
232.029
 20
6.46
 30
0.0
 11
219.0242380952381
 21
7.96
 31
0.0
 70
    36
  1
R<>
 71
     5
 42
1.599999999999994
 73
     0
 74
     0
 75
     0
  3
QCADDimStyle
100
AcDbRadialDimension
 15
230.429
 25
6.46
 35
0.0
 40
0.0
1001
ACAD
1000
DSTYLE
1002
{
1070
   279
1070
     2
1070
    41
1040
2.0
1070
   176
1070
     0
1070
   177
1070
     0
1070
   178
1070
     0
1070
    44
1040
1.0
1070
    42
1040
0.5
1070
   147
1040
0.5
1070
   140
1040
2.0
1002
}
  0
DIMENSION
  5
5A87
330
5AAA
100
AcDbEntity
  8
Measur
100
AcDbDimension
280
     0
  2
*D19
 10
261.874
 20
26.856
 30
0.0
 11
246.9515
 21
28.356
 31
0.0
 70
    32
 71
     5
 42
29.84499999999997
 73
     0
 74
     0
 75
     0
  3
QCADDimStyle
100
AcDbAlignedDimension
 13
232.029
 23
18.271
 33
0.0
 14
261.874
 24
22.71599999999999
 34
0.0
100
AcDbRotatedDimension
1001
ACAD
1000
DSTYLE
1002
{
1070
   279
1070
     2
1070
    41
1040
2.0
1070
   176
1070
     0
1070
   177
1070
     0
1070
   178
1070
     0
1070
    44
1040
1.0
1070
    42
1040
0.5
1070
   147
1040
0.5
1070
   140
1040
2.0
1002
}
  0
ENDSEC
  0
SECTION
  2
OBJECTS
  0
DICTIONARY
  5
5A98
330
0
100
AcDbDictionary
281
     1
  3
ACAD_DETAILVIEWSTYLE
350
5BD8
  3
ACAD_GROUP
350
5A99
  3
ACAD_LAYOUT
350
5AA5
  3
ACAD_MATERIAL
350
5ACE
  3
ACAD_MLEADERSTYLE
350
5AF6
  3
ACAD_MLINESTYLE
350
5AA2
  3
ACAD_PLOTSETTINGS
350
5AA4
  3
ACAD_PLOTSTYLENAME
350
5A9A
  3
ACAD_SCALELIST
350
5AD2
  3
ACAD_SECTIONVIEWSTYLE
350
5BD9
  3
ACAD_TABLESTYLE
350
5AF4
  3
ACAD_VISUALSTYLE
350
5AB5
  3
ACDB_RECOMPOSE_DATA
350
5BD5
  3
AcDbVariableDictionary
350
5BD1
  3
QCAD_OBJECTS
350
5AFA
  0
SUN
  5
5AF8
330
5AB4
100
AcDbSun
 90
        1
290
     0
 63
     7
421
 16777215
 40
1.0
291
     1
 91
  2455826
 92
 54000000
292
     0
 70
     2
 71
   256
280
     1
  0
DICTIONARY
  5
5BD8
102
{ACAD_REACTORS
330
5A98
102
}
330
5A98
100
AcDbDictionary
281
     1
  0
DICTIONARY
  5
5A99
102
{ACAD_REACTORS
330
5A98
102
}
330
5A98
100
AcDbDictionary
281
     1
  0
DICTIONARY
  5
5AA5
102
{ACAD_REACTORS
330
5A98
102
}
330
5A98
100
AcDbDictionary
281
     1
  3
Layout1
350
5AA9
  3
Layout2
350
5AB1
  3
Model
350
5AAD
  0
DICTIONARY
  5
5ACE
102
{ACAD_REACTORS
330
5A98
102
}
330
5A98
100
AcDbDictionary
281
     1
  3
ByBlock
350
5AD0
  3
ByLayer
350
5ACF
  3
Global
350
5AD1
  0
DICTIONARY
  5
5AF6
102
{ACAD_REACTORS
330
5A98
102
}
330
5A98
100
AcDbDictionary
281
     1
  3
Standard
350
5AF7
  0
DICTIONARY
  5
5AA2
102
{ACAD_REACTORS
330
5A98
102
}
330
5A98
100
AcDbDictionary
281
     1
  3
Standard
350
5AA3
  0
DICTIONARY
  5
5AA4
102
{ACAD_REACTORS
330
5A98
102
}
330
5A98
100
AcDbDictionary
281
     1
  0
ACDBDICTIONARYWDFLT
  5
5A9A
102
{ACAD_REACTORS
330
5A98
102
}
330
5A98
100
AcDbDictionary
281
     1
  3
Normal
350
5A9B
100
AcDbDictionaryWithDefault
340
5A9B
  0
DICTIONARY
  5
5AD2
102
{ACAD_REACTORS
330
5A98
102
}
330
5A98
100
AcDbDictionary
281
     1
  3
A0
350
5AD3
  3
A1
350
5AD4
  3
A2
350
5AD5
  3
A3
350
5AD6
  3
A4
350
5AD7
  3
A5
350
5AD8
  3
A6
350
5AD9
  3
A7
350
5ADA
  3
A8
350
5ADB
  3
A9
350
5ADC
  3
B0
350
5ADD
  3
B1
350
5ADE
  3
B2
350
5ADF
  3
B3
350
5AE0
  3
B4
350
5AE1
  3
B5
350
5AE2
  3
B6
350
5AE3
  3
B7
350
5AE4
  3
B8
350
5AE5
  3
B9
350
5AE6
  3
C0
350
5AE7
  3
C1
350
5AE8
  3
C2
350
5AE9
  3
C3
350
5AEA
  3
C4
350
5AEB
  3
C5
350
5AEC
  3
C6
350
5AED
  3
C7
350
5AEE
  3
C8
350
5AEF
  3
C9
350
5AF0
  3
D0
350
5AF1
  3
D1
350
5AF2
  3
D2
350
5AF3
  0
DICTIONARY
  5
5BD9
102
{ACAD_REACTORS
330
5A98
102
}
330
5A98
100
AcDbDictionary
281
     1
  0
DICTIONARY
  5
5AF4
102
{ACAD_REACTORS
330
5A98
102
}
330
5A98
100
AcDbDictionary
281
     1
  3
Standard
350
5AF5
  0
DICTIONARY
  5
5AB5
102
{ACAD_REACTORS
330
5A98
102
}
330
5A98
100
AcDbDictionary
281
     1
  3
2dWireframe
350
5ABA
  3
Basic
350
5ABD
  3
Brighten
350
5AC1
  3
ColorChange
350
5AC5
  3
Conceptual
350
5ABF
  3
Dim
350
5AC0
  3
EdgeColorOff
350
5AC8
  3
Facepattern
350
5AC4
  3
Flat
350
5AB6
  3
FlatWithEdges
350
5AB7
  3
Gouraud
350
5AB8
  3
GouraudWithEdges
350
5AB9
  3
Hidden
350
5ABC
  3
JitterOff
350
5AC6
  3
Linepattern
350
5AC3
  3
OverhangOff
350
5AC7
  3
Realistic
350
5ABE
  3
Shaded
350
5ACD
  3
Shaded with edges
350
5ACC
  3
Shades of Gray
350
5AC9
  3
Sketchy
350
5ACA
  3
Thicken
350
5AC2
  3
Wireframe
350
5ABB
  3
X-Ray
350
5ACB
  0
XRECORD
  5
5BD5
102
{ACAD_REACTORS
330
5A98
102
}
330
5A98
100
AcDbXrecord
280
     1
 90
        1
330
5AF5
  0
DICTIONARY
  5
5BD1
102
{ACAD_REACTORS
330
5A98
102
}
330
5A98
100
AcDbDictionary
281
     1
  3
CANNOSCALE
350
5BD2
  3
CMLEADERSTYLE
350
5BD7
  3
CTABLESTYLE
350
5BD6
  0
DICTIONARY
  5
5AFA
102
{ACAD_REACTORS
330
5A98
102
}
330
5A98
100
AcDbDictionary
281
     1
  3
DimensionSettings/AngularFormat
350
5AFC
  3
DimensionSettings/AngularPrecision
350
5AFD
  3
DimensionSettings/DimensionFont
350
5AFE
  3
DimensionSettings/KeepProportions
350
5AFF
  3
DimensionSettings/LinearFormat
350
5B00
  3
DimensionSettings/LinearPrecision
350
5B01
  3
Grid/DisplayGrid00
350
5B02
  3
Grid/DisplayGrid01
350
5B03
  3
Grid/DisplayGrid02
350
5B04
  3
Grid/DisplayGrid03
350
5B05
  3
Grid/GridSpacingX00
350
5B06
  3
Grid/GridSpacingX01
350
5B07
  3
Grid/GridSpacingX02
350
5B08
  3
Grid/GridSpacingX03
350
5B09
  3
Grid/GridSpacingY00
350
5B0A
  3
Grid/GridSpacingY01
350
5B0B
  3
Grid/GridSpacingY02
350
5B0C
  3
Grid/GridSpacingY03
350
5B0D
  3
Grid/IsometricGrid00
350
5B0E
  3
Grid/IsometricGrid01
350
5B0F
  3
Grid/IsometricGrid02
350
5B10
  3
Grid/IsometricGrid03
350
5B11
  3
Grid/IsometricProjection00
350
5B12
  3
Grid/IsometricProjection01
350
5B13
  3
Grid/IsometricProjection02
350
5B14
  3
Grid/IsometricProjection03
350
5B15
  3
Grid/MetaGridSpacingX00
350
5B16
  3
Grid/MetaGridSpacingX01
350
5B17
  3
Grid/MetaGridSpacingX02
350
5B18
  3
Grid/MetaGridSpacingX03
350
5B19
  3
Grid/MetaGridSpacingY00
350
5B1A
  3
Grid/MetaGridSpacingY01
350
5B1B
  3
Grid/MetaGridSpacingY02
350
5B1C
  3
Grid/MetaGridSpacingY03
350
5B1D
  3
MultiPageSettings/Columns
350
5B1E
  3
MultiPageSettings/GlueMarginsBottom
350
5B1F
  3
MultiPageSettings/GlueMarginsLeft
350
5B20
  3
MultiPageSettings/GlueMarginsRight
350
5B21
  3
MultiPageSettings/GlueMarginsTop
350
5B22
  3
MultiPageSettings/PrintCropMarks
350
5B23
  3
MultiPageSettings/Rows
350
5B24
  3
PageSettings/OffsetX
350
5B25
  3
PageSettings/OffsetY
350
5B26
  3
PageSettings/PageOrientation
350
5B27
  3
PageSettings/PaperHeight
350
5B28
  3
PageSettings/PaperWidth
350
5B29
  3
PageSettings/Scale
350
5B2A
  3
PageSettings/ShowPaperBorders
350
5B2B
  3
QCADVersion
350
5AFB
  3
UnitSettings/PaperUnit
350
5B2C
  0
LAYOUT
  5
5AA9
102
{ACAD_REACTORS
330
5AA5
102
}
330
5AA5
100
AcDbPlotSettings
  1

  2
none_device
  4

  6

 40
0.0
 41
0.0
 42
0.0
 43
0.0
 44
0.0
 45
0.0
 46
0.0
 47
0.0
 48
0.0
 49
0.0
140
0.0
141
0.0
142
1.0
143
1.0
 70
   688
 72
     0
 73
     0
 74
     5
  7

 75
    16
 76
     0
 77
     2
 78
   300
147
1.0
148
0.0
149
0.0
100
AcDbLayout
  1
Layout1
 70
     1
 71
     1
 10
0.0
 20
0.0
 11
12.0
 21
9.0
 12
0.0
 22
0.0
 32
0.0
 14
1.000000000000000E+20
 24
1.000000000000000E+20
 34
1.000000000000000E+20
 15
-1.000000000000000E+20
 25
-1.000000000000000E+20
 35
-1.000000000000000E+20
146
0.0
 13
0.0
 23
0.0
 33
0.0
 16
1.0
 26
0.0
 36
0.0
 17
0.0
 27
1.0
 37
0.0
 76
     0
330
5AA6
  0
LAYOUT
  5
5AB1
102
{ACAD_REACTORS
330
5AA5
102
}
330
5AA5
100
AcDbPlotSettings
  1

  2
none_device
  4

  6

 40
0.0
 41
0.0
 42
0.0
 43
0.0
 44
0.0
 45
0.0
 46
0.0
 47
0.0
 48
0.0
 49
0.0
140
0.0
141
0.0
142
1.0
143
1.0
 70
   688
 72
     0
 73
     0
 74
     5
  7

 75
    16
 76
     0
 77
     2
 78
   300
147
1.0
148
0.0
149
0.0
100
AcDbLayout
  1
Layout2
 70
     1
 71
     2
 10
0.0
 20
0.0
 11
0.0
 21
0.0
 12
0.0
 22
0.0
 32
0.0
 14
0.0
 24
0.0
 34
0.0
 15
0.0
 25
0.0
 35
0.0
146
0.0
 13
0.0
 23
0.0
 33
0.0
 16
1.0
 26
0.0
 36
0.0
 17
0.0
 27
1.0
 37
0.0
 76
     0
330
5AAE
  0
LAYOUT
  5
5AAD
102
{ACAD_REACTORS
330
5AA5
102
}
330
5AA5
100
AcDbPlotSettings
  1

  2
none_device
  4
Letter_(8.50_x_11.00_Inches)
  6

 40
6.35
 41
6.35
 42
6.35000508
 43
6.35000508
 44
215.9
 45
279.4
 46
0.0
 47
0.0
 48
0.0
 49
0.0
140
0.0
141
0.0
142
1.0
143
1.0
 70
  1712
 72
     0
 73
     0
 74
     0
  7

 75
     0
 76
     0
 77
     2
 78
   300
147
1.0
148
0.0
149
0.0
100
AcDbLayout
  1
Model
 70
     1
 71
     0
 10
0.0
 20
0.0
 11
12.0
 21
9.0
 12
0.0
 22
0.0
 32
0.0
 14
-26.5684
 24
2.3876
 34
0.0
 15
244.4955
 25
23.0505
 35
0.0
146
0.0
 13
0.0
 23
0.0
 33
0.0
 16
1.0
 26
0.0
 36
0.0
 17
0.0
 27
1.0
 37
0.0
 76
     0
330
5AAA
331
5AB4
  0
MATERIAL
  5
5AD0
102
{ACAD_REACTORS
330
5ACE
102
}
330
5ACE
100
AcDbMaterial
  1
ByBlock
 72
     1
 94
      127
  0
MATERIAL
  5
5ACF
102
{ACAD_REACTORS
330
5ACE
102
}
330
5ACE
100
AcDbMaterial
  1
ByLayer
 72
     1
 94
      127
  0
MATERIAL
  5
5AD1
102
{ACAD_REACTORS
330
5ACE
102
}
330
5ACE
100
AcDbMaterial
  1
Global
 72
     1
 94
      127
  0
MLEADERSTYLE
  5
5AF7
102
{ACAD_REACTORS
330
5AF6
102
}
330
5AF6
100
AcDbMLeaderStyle
179
     2
170
     2
171
     1
172
     0
 90
        2
 40
0.0
 41
0.0
173
     1
 91
-1056964608
340
5A9F
 92
       -2
290
     1
 42
0.09
291
     1
 43
0.36
  3
Standard
341
0
 44
0.18
300

342
5A9D
174
     1
178
     6
175
     1
176
     0
 93
-1056964608
 45
0.18
292
     0
297
     0
 46
0.18
343
0
 94
-1056964608
 47
1.0
 49
1.0
140
1.0
293
     1
141
0.0
294
     1
177
     0
142
1.0
295
     0
296
     0
143
0.125
271
     0
272
     9
273
     9
298
     0
  0
MLINESTYLE
  5
5AA3
102
{ACAD_REACTORS
330
5AA2
102
}
330
5AA2
100
AcDbMlineStyle
  2
Standard
 70
     0
  3

 62
   256
 51
90.0
 52
90.0
 71
     2
 49
0.5
 62
   256
  6
BYLAYER
 49
-0.5
 62
   256
  6
BYLAYER
  0
ACDBPLACEHOLDER
  5
5A9B
102
{ACAD_REACTORS
330
5A9A
102
}
330
5A9A
  0
SCALE
  5
5AD3
102
{ACAD_REACTORS
330
5AD2
102
}
330
5AD2
100
AcDbScale
 70
     0
300
1:1
140
1.0
141
1.0
290
     1
  0
SCALE
  5
5AD4
102
{ACAD_REACTORS
330
5AD2
102
}
330
5AD2
100
AcDbScale
 70
     0
300
1:2
140
1.0
141
2.0
290
     0
  0
SCALE
  5
5AD5
102
{ACAD_REACTORS
330
5AD2
102
}
330
5AD2
100
AcDbScale
 70
     0
300
1:4
140
1.0
141
4.0
290
     0
  0
SCALE
  5
5AD6
102
{ACAD_REACTORS
330
5AD2
102
}
330
5AD2
100
AcDbScale
 70
     0
300
1:5
140
1.0
141
5.0
290
     0
  0
SCALE
  5
5AD7
102
{ACAD_REACTORS
330
5AD2
102
}
330
5AD2
100
AcDbScale
 70
     0
300
1:8
140
1.0
141
8.0
290
     0
  0
SCALE
  5
5AD8
102
{ACAD_REACTORS
330
5AD2
102
}
330
5AD2
100
AcDbScale
 70
     0
300
1:10
140
1.0
141
10.0
290
     0
  0
SCALE
  5
5AD9
102
{ACAD_REACTORS
330
5AD2
102
}
330
5AD2
100
AcDbScale
 70
     0
300
1:16
140
1.0
141
16.0
290
     0
  0
SCALE
  5
5ADA
102
{ACAD_REACTORS
330
5AD2
102
}
330
5AD2
100
AcDbScale
 70
     0
300
1:20
140
1.0
141
20.0
290
     0
  0
SCALE
  5
5ADB
102
{ACAD_REACTORS
330
5AD2
102
}
330
5AD2
100
AcDbScale
 70
     0
300
1:30
140
1.0
141
30.0
290
     0
  0
SCALE
  5
5ADC
102
{ACAD_REACTORS
330
5AD2
102
}
330
5AD2
100
AcDbScale
 70
     0
300
1:40
140
1.0
141
40.0
290
     0
  0
SCALE
  5
5ADD
102
{ACAD_REACTORS
330
5AD2
102
}
330
5AD2
100
AcDbScale
 70
     0
300
1:50
140
1.0
141
50.0
290
     0
  0
SCALE
  5
5ADE
102
{ACAD_REACTORS
330
5AD2
102
}
330
5AD2
100
AcDbScale
 70
     0
300
1:100
140
1.0
141
100.0
290
     0
  0
SCALE
  5
5ADF
102
{ACAD_REACTORS
330
5AD2
102
}
330
5AD2
100
AcDbScale
 70
     0
300
2:1
140
2.0
141
1.0
290
     0
  0
SCALE
  5
5AE0
102
{ACAD_REACTORS
330
5AD2
102
}
330
5AD2
100
AcDbScale
 70
     0
300
4:1
140
4.0
141
1.0
290
     0
  0
SCALE
  5
5AE1
102
{ACAD_REACTORS
330
5AD2
102
}
330
5AD2
100
AcDbScale
 70
     0
300
8:1
140
8.0
141
1.0
290
     0
  0
SCALE
  5
5AE2
102
{ACAD_REACTORS
330
5AD2
102
}
330
5AD2
100
AcDbScale
 70
     0
300
10:1
140
10.0
141
1.0
290
     0
  0
SCALE
  5
5AE3
102
{ACAD_REACTORS
330
5AD2
102
}
330
5AD2
100
AcDbScale
 70
     0
300
100:1
140
100.0
141
1.0
290
     0
  0
SCALE
  5
5AE4
102
{ACAD_REACTORS
330
5AD2
102
}
330
5AD2
100
AcDbScale
 70
     0
300
1/128" = 1'-0"
140
0.0078125
141
12.0
290
     0
  0
SCALE
  5
5AE5
102
{ACAD_REACTORS
330
5AD2
102
}
330
5AD2
100
AcDbScale
 70
     0
300
1/64" = 1'-0"
140
0.015625
141
12.0
290
     0
  0
SCALE
  5
5AE6
102
{ACAD_REACTORS
330
5AD2
102
}
330
5AD2
100
AcDbScale
 70
     0
300
1/32" = 1'-0"
140
0.03125
141
12.0
290
     0
  0
SCALE
  5
5AE7
102
{ACAD_REACTORS
330
5AD2
102
}
330
5AD2
100
AcDbScale
 70
     0
300
1/16" = 1'-0"
140
0.0625
141
12.0
290
     0
  0
SCALE
  5
5AE8
102
{ACAD_REACTORS
330
5AD2
102
}
330
5AD2
100
AcDbScale
 70
     0
300
3/32" = 1'-0"
140
0.09375
141
12.0
290
     0
  0
SCALE
  5
5AE9
102
{ACAD_REACTORS
330
5AD2
102
}
330
5AD2
100
AcDbScale
 70
     0
300
1/8" = 1'-0"
140
0.125
141
12.0
290
     0
  0
SCALE
  5
5AEA
102
{ACAD_REACTORS
330
5AD2
102
}
330
5AD2
100
AcDbScale
 70
     0
300
3/16" = 1'-0"
140
0.1875
141
12.0
290
     0
  0
SCALE
  5
5AEB
102
{ACAD_REACTORS
330
5AD2
102
}
330
5AD2
100
AcDbScale
 70
     0
300
1/4" = 1'-0"
140
0.25
141
12.0
290
     0
  0
SCALE
  5
5AEC
102
{ACAD_REACTORS
330
5AD2
102
}
330
5AD2
100
AcDbScale
 70
     0
300
3/8" = 1'-0"
140
0.375
141
12.0
290
     0
  0
SCALE
  5
5AED
102
{ACAD_REACTORS
330
5AD2
102
}
330
5AD2
100
AcDbScale
 70
     0
300
1/2" = 1'-0"
140
0.5
141
12.0
290
     0
  0
SCALE
  5
5AEE
102
{ACAD_REACTORS
330
5AD2
102
}
330
5AD2
100
AcDbScale
 70
     0
300
3/4" = 1'-0"
140
0.75
141
12.0
290
     0
  0
SCALE
  5
5AEF
102
{ACAD_REACTORS
330
5AD2
102
}
330
5AD2
100
AcDbScale
 70
     0
300
1" = 1'-0"
140
1.0
141
12.0
290
     0
  0
SCALE
  5
5AF0
102
{ACAD_REACTORS
330
5AD2
102
}
330
5AD2
100
AcDbScale
 70
     0
300
1-1/2" = 1'-0"
140
1.5
141
12.0
290
     0
  0
SCALE
  5
5AF1
102
{ACAD_REACTORS
330
5AD2
102
}
330
5AD2
100
AcDbScale
 70
     0
300
3" = 1'-0"
140
3.0
141
12.0
290
     0
  0
SCALE
  5
5AF2
102
{ACAD_REACTORS
330
5AD2
102
}
330
5AD2
100
AcDbScale
 70
     0
300
6" = 1'-0"
140
6.0
141
12.0
290
     0
  0
SCALE
  5
5AF3
102
{ACAD_REACTORS
330
5AD2
102
}
330
5AD2
100
AcDbScale
 70
     0
300
1'-0" = 1'-0"
140
12.0
141
12.0
290
     0
  0
TABLESTYLE
  5
5AF5
102
{ACAD_REACTORS
330
5AF4
102
}
102
{ACAD_XDICTIONARY
360
5BD3
102
}
330
5AF4
100
AcDbTableStyle
  3
Standard
 70
     0
 71
     0
 40
0.06
 41
0.06
280
     0
281
     0
  7
Standard
140
0.18
170
     2
 62
     0
 63
   257
283
     0
 90
        4
 91
        0
  1

274
    -2
284
     1
 64
     0
275
    -2
285
     1
 65
     0
276
    -2
286
     1
 66
     0
277
    -2
287
     1
 67
     0
278
    -2
288
     1
 68
     0
279
    -2
289
     1
 69
     0
  7
Standard
140
0.25
170
     5
 62
     0
 63
   257
283
     0
 90
        4
 91
        0
  1

274
    -2
284
     1
 64
     0
275
    -2
285
     1
 65
     0
276
    -2
286
     1
 66
     0
277
    -2
287
     1
 67
     0
278
    -2
288
     1
 68
     0
279
    -2
289
     1
 69
     0
  7
Standard
140
0.18
170
     5
 62
     0
 63
   257
283
     0
 90
        4
 91
        0
  1

274
    -2
284
     1
 64
     0
275
    -2
285
     1
 65
     0
276
    -2
286
     1
 66
     0
277
    -2
287
     1
 67
     0
278
    -2
288
     1
 68
     0
279
    -2
289
     1
 69
     0
  0
VISUALSTYLE
  5
5ABA
102
{ACAD_REACTORS
330
5AB5
102
}
330
5AB5
100
AcDbVisualStyle
  2
2dWireframe
 70
     4
177
     3
291
     0
 70
    58
 90
        0
176
     1
 90
        2
176
     1
 90
        0
176
     1
 90
        0
176
     1
 40
0.6
176
     1
 40
30.0
176
     1
 62
     7
420
 16777215
176
     1
 90
        1
176
     1
 90
        4
176
     1
 62
     7
176
     1
 62
   257
176
     1
 90
        1
176
     1
 90
        1
176
     1
 40
1.0
176
     1
 90
        0
176
     1
 62
   257
176
     1
 40
1.0
176
     1
 90
        1
176
     1
 90
        6
176
     1
 90
        2
176
     1
 62
     7
176
     1
 90
        5
176
     1
 90
        0
176
     1
 90
        0
176
     1
290
     0
176
     1
 90
        1
176
     1
 40
0.0
176
     1
 90
        0
176
     1
290
     1
176
     1
290
     1
176
     1
290
     0
176
     1
290
     0
176
     1
290
     0
176
     1
290
     0
176
     1
290
     0
176
     1
290
     0
176
     1
290
     0
176
     1
 90
       50
176
     1
 40
0.0
176
     1
 40
1.0
176
     1
 90
        0
176
     1
 62
   178
420
        0
176
     1
 90
       50
176
     1
 90
        3
176
     1
 62
     5
420
      255
176
     1
290
     0
176
     1
 90
       50
176
     1
 90
       50
176
     1
 90
       50
176
     1
290
     0
176
     1
 90
       50
176
     1
 62
   256
176
     0
 40
1.0
176
     0
 90
        2
176
     1
  1
strokes_ogs.tif
176
     1
290
     0
176
     1
 40
1.0
176
     1
 40
1.0
176
     1
  0
VISUALSTYLE
  5
5ABD
102
{ACAD_REACTORS
330
5AB5
102
}
330
5AB5
100
AcDbVisualStyle
  2
Basic
 70
     7
177
     3
291
     1
 70
    58
 90
        1
176
     1
 90
        0
176
     1
 90
        1
176
     1
 90
        0
176
     1
 40
0.6
176
     1
 40
30.0
176
     1
 62
     7
420
 16777215
176
     1
 90
        0
176
     1
 90
        4
176
     1
 62
     7
176
     1
 62
   257
176
     1
 90
        1
176
     1
 90
        1
176
     1
 40
1.0
176
     1
 90
        8
176
     1
 62
     7
176
     1
 40
1.0
176
     1
 90
        1
176
     1
 90
        6
176
     1
 90
        2
176
     1
 62
     7
176
     1
 90
        5
176
     1
 90
        0
176
     1
 90
        0
176
     1
290
     0
176
     1
 90
        1
176
     1
 40
0.0
176
     1
 90
        0
176
     1
290
     0
176
     1
290
     1
176
     1
290
     1
176
     1
290
     0
176
     1
290
     0
176
     1
290
     0
176
     1
290
     0
176
     1
290
     0
176
     1
290
     0
176
     1
 90
       50
176
     1
 40
0.0
176
     1
 40
1.0
176
     1
 90
        0
176
     1
 62
   178
420
        0
176
     1
 90
       50
176
     1
 90
        3
176
     1
 62
     5
420
      255
176
     1
290
     0
176
     1
 90
       50
176
     1
 90
       50
176
     1
 90
       50
176
     1
290
     0
176
     1
 90
       50
176
     1
 62
   256
176
     0
 40
1.0
176
     0
 90
        2
176
     1
  1
strokes_ogs.tif
176
     1
290
     0
176
     1
 40
1.0
176
     1
 40
1.0
176
     1
  0
VISUALSTYLE
  5
5AC1
102
{ACAD_REACTORS
330
5AB5
102
}
330
5AB5
100
AcDbVisualStyle
  2
Brighten
 70
    12
177
     3
291
     1
 70
    58
 90
        2
176
     1
 90
        2
176
     1
 90
        0
176
     1
 90
        0
176
     1
 40
0.6
176
     1
 40
30.0
176
     1
 62
     7
420
 16777215
176
     1
 90
        1
176
     1
 90
        4
176
     1
 62
     7
176
     1
 62
   257
176
     1
 90
        1
176
     1
 90
        1
176
     1
 40
1.0
176
     1
 90
        8
176
     1
 62
     7
176
     1
 40
1.0
176
     1
 90
        1
176
     1
 90
        6
176
     1
 90
        2
176
     1
 62
     7
176
     1
 90
        5
176
     1
 90
        0
176
     1
 90
        0
176
     1
290
     0
176
     1
 90
        1
176
     1
 40
50.0
176
     1
 90
        0
176
     1
290
     0
176
     1
290
     1
176
     1
290
     1
176
     1
290
     0
176
     1
290
     0
176
     1
290
     0
176
     1
290
     0
176
     1
290
     0
176
     1
290
     0
176
     1
 90
       50
176
     1
 40
0.0
176
     1
 40
1.0
176
     1
 90
        0
176
     1
 62
   178
420
        0
176
     1
 90
       50
176
     1
 90
        3
176
     1
 62
     5
420
      255
176
     1
290
     0
176
     1
 90
       50
176
     1
 90
       50
176
     1
 90
       50
176
     1
290
     0
176
     1
 90
       50
176
     1
 62
   256
176
     0
 40
1.0
176
     0
 90
        2
176
     1
  1
strokes_ogs.tif
176
     1
290
     0
176
     1
 40
1.0
176
     1
 40
1.0
176
     1
  0
VISUALSTYLE
  5
5AC5
102
{ACAD_REACTORS
330
5AB5
102
}
330
5AB5
100
AcDbVisualStyle
  2
ColorChange
 70
    16
177
     3
291
     1
 70
    58
 90
        2
176
     1
 90
        2
176
     1
 90
        3
176
     1
 90
        0
176
     1
 40
0.6
176
     1
 40
30.0
176
     1
 62
     8
420
  8421504
176
     1
 90
        1
176
     1
 90
        4
176
     1
 62
     7
176
     1
 62
   257
176
     1
 90
        1
176
     1
 90
        1
176
     1
 40
1.0
176
     1
 90
        8
176
     1
 62
     8
420
  8421504
176
     1
 40
1.0
176
     1
 90
        1
176
     1
 90
        6
176
     1
 90
        2
176
     1
 62
     7
176
     1
 90
        5
176
     1
 90
        0
176
     1
 90
        0
176
     1
290
     0
176
     1
 90
        1
176
     1
 40
0.0
176
     1
 90
        0
176
     1
290
     0
176
     1
290
     1
176
     1
290
     1
176
     1
290
     0
176
     1
290
     0
176
     1
290
     0
176
     1
290
     0
176
     1
290
     0
176
     1
290
     0
176
     1
 90
       50
176
     1
 40
0.0
176
     1
 40
1.0
176
     1
 90
        0
176
     1
 62
   178
420
        0
176
     1
 90
       50
176
     1
 90
        3
176
     1
 62
     5
420
      255
176
     1
290
     0
176
     1
 90
       50
176
     1
 90
       50
176
     1
 90
       50
176
     1
290
     0
176
     1
 90
       50
176
     1
 62
   256
176
     0
 40
1.0
176
     0
 90
        2
176
     1
  1
strokes_ogs.tif
176
     1
290
     0
176
     1
 40
1.0
176
     1
 40
1.0
176
     1
  0
VISUALSTYLE
  5
5ABF
102
{ACAD_REACTORS
330
5AB5
102
}
330
5AB5
100
AcDbVisualStyle
  2
Conceptual
 70
     9
177
     3
291
     0
 70
    58
 90
        3
176
     1
 90
        2
176
     1
 90
        0
176
     1
 90
        0
176
     1
 40
0.6
176
     1
 40
30.0
176
     1
 62
     7
420
 16777215
176
     1
 90
        2
176
     1
 90
        2
176
     1
 62
     7
176
     1
 62
   257
176
     1
 90
        1
176
     1
 90
        1
176
     1
 40
179.0
176
     1
 90
        8
176
     1
 62
     7
176
     1
 40
1.0
176
     1
 90
        1
176
     1
 90
        6
176
     1
 90
        2
176
     1
 62
     7
176
     1
 90
        3
176
     1
 90
        0
176
     1
 90
        0
176
     1
290
     0
176
     1
 90
        1
176
     1
 40
0.0
176
     1
 90
        0
176
     1
290
     0
176
     1
290
     1
176
     1
290
     1
176
     1
290
     0
176
     1
290
     0
176
     1
290
     0
176
     1
290
     0
176
     1
290
     0
176
     1
290
     0
176
     1
 90
       50
176
     1
 40
0.0
176
     1
 40
1.0
176
     1
 90
        0
176
     1
 62
   178
420
        0
176
     1
 90
       50
176
     1
 90
        3
176
     1
 62
     5
420
      255
176
     1
290
     0
176
     1
 90
       50
176
     1
 90
       50
176
     1
 90
       50
176
     1
290
     0
176
     1
 90
       50
176
     1
 62
   256
176
     0
 40
1.0
176
     0
 90
        2
176
     1
  1
strokes_ogs.tif
176
     1
290
     0
176
     1
 40
1.0
176
     1
 40
1.0
176
     1
  0
VISUALSTYLE
  5
5AC0
102
{ACAD_REACTORS
330
5AB5
102
}
330
5AB5
100
AcDbVisualStyle
  2
Dim
 70
    11
177
     3
291
     1
 70
    58
 90
        2
176
     1
 90
        2
176
     1
 90
        0
176
     1
 90
        0
176
     1
 40
0.6
176
     1
 40
30.0
176
     1
 62
     7
420
 16777215
176
     1
 90
        1
176
     1
 90
        4
176
     1
 62
     7
176
     1
 62
   257
176
     1
 90
        1
176
     1
 90
        1
176
     1
 40
1.0
176
     1
 90
        8
176
     1
 62
     7
176
     1
 40
1.0
176
     1
 90
        1
176
     1
 90
        6
176
     1
 90
        2
176
     1
 62
     7
176
     1
 90
        5
176
     1
 90
        0
176
     1
 90
        0
176
     1
290
     0
176
     1
 90
        1
176
     1
 40
-50.0
176
     1
 90
        0
176
     1
290
     0
176
     1
290
     1
176
     1
290
     1
176
     1
290
     0
176
     1
290
     0
176
     1
290
     0
176
     1
290
     0
176
     1
290
     0
176
     1
290
     0
176
     1
 90
       50
176
     1
 40
0.0
176
     1
 40
1.0
176
     1
 90
        0
176
     1
 62
   178
420
        0
176
     1
 90
       50
176
     1
 90
        3
176
     1
 62
     5
420
      255
176
     1
290
     0
176
     1
 90
       50
176
     1
 90
       50
176
     1
 90
       50
176
     1
290
     0
176
     1
 90
       50
176
     1
 62
   256
176
     0
 40
1.0
176
     0
 90
        2
176
     1
  1
strokes_ogs.tif
176
     1
290
     0
176
     1
 40
1.0
176
     1
 40
1.0
176
     1
  0
VISUALSTYLE
  5
5AC8
102
{ACAD_REACTORS
330
5AB5
102
}
330
5AB5
100
AcDbVisualStyle
  2
EdgeColorOff
 70
    22
177
     3
291
     1
 70
    58
 90
        2
176
     0
 90
        2
176
     0
 90
        0
176
     0
 90
        0
176
     0
 40
0.6
176
     0
 40
30.0
176
     0
 62
     7
420
 16777215
176
     0
 90
        1
176
     0
 90
        4
176
     0
 62
     7
176
     0
 62
   257
176
     0
 90
        1
176
     0
 90
        1
176
     0
 40
1.0
176
     0
 90
        8
176
     2
 62
     7
176
     0
 40
1.0
176
     0
 90
        1
176
     0
 90
        6
176
     0
 90
        2
176
     0
 62
     7
176
     0
 90
        5
176
     0
 90
        0
176
     0
 90
        0
176
     0
290
     0
176
     0
 90
        1
176
     0
 40
0.0
176
     0
 90
        0
176
     0
290
     0
176
     0
290
     1
176
     0
290
     1
176
     0
290
     0
176
     0
290
     0
176
     0
290
     0
176
     0
290
     0
176
     0
290
     0
176
     0
290
     0
176
     0
 90
       50
176
     0
 40
0.0
176
     0
 40
1.0
176
     0
 90
        0
176
     0
 62
   178
420
        0
176
     0
 90
       50
176
     0
 90
        3
176
     0
 62
     5
420
      255
176
     0
290
     0
176
     0
 90
       50
176
     0
 90
       50
176
     0
 90
       50
176
     0
290
     0
176
     0
 90
       50
176
     0
 62
   256
176
     0
 40
1.0
176
     0
 90
        2
176
     0
  1
strokes_ogs.tif
176
     0
290
     0
176
     0
 40
1.0
176
     0
 40
1.0
176
     0
  0
VISUALSTYLE
  5
5AC4
102
{ACAD_REACTORS
330
5AB5
102
}
330
5AB5
100
AcDbVisualStyle
  2
Facepattern
 70
    15
177
     3
291
     1
 70
    58
 90
        2
176
     1
 90
        2
176
     1
 90
        0
176
     1
 90
        0
176
     1
 40
0.6
176
     1
 40
30.0
176
     1
 62
     7
420
 16777215
176
     1
 90
        1
176
     1
 90
        4
176
     1
 62
     7
176
     1
 62
   257
176
     1
 90
        1
176
     1
 90
        1
176
     1
 40
1.0
176
     1
 90
        8
176
     1
 62
     7
176
     1
 40
1.0
176
     1
 90
        1
176
     1
 90
        6
176
     1
 90
        2
176
     1
 62
     7
176
     1
 90
        5
176
     1
 90
        0
176
     1
 90
        0
176
     1
290
     0
176
     1
 90
        1
176
     1
 40
0.0
176
     1
 90
        0
176
     1
290
     0
176
     1
290
     1
176
     1
290
     1
176
     1
290
     0
176
     1
290
     0
176
     1
290
     0
176
     1
290
     0
176
     1
290
     0
176
     1
290
     0
176
     1
 90
       50
176
     1
 40
0.0
176
     1
 40
1.0
176
     1
 90
        0
176
     1
 62
   178
420
        0
176
     1
 90
       50
176
     1
 90
        3
176
     1
 62
     5
420
      255
176
     1
290
     0
176
     1
 90
       50
176
     1
 90
       50
176
     1
 90
       50
176
     1
290
     0
176
     1
 90
       50
176
     1
 62
   256
176
     0
 40
1.0
176
     0
 90
        2
176
     1
  1
strokes_ogs.tif
176
     1
290
     0
176
     1
 40
1.0
176
     1
 40
1.0
176
     1
  0
VISUALSTYLE
  5
5AB6
102
{ACAD_REACTORS
330
5AB5
102
}
330
5AB5
100
AcDbVisualStyle
  2
Flat
 70
     0
177
     3
291
     1
 70
    58
 90
        2
176
     1
 90
        1
176
     1
 90
        1
176
     1
 90
        2
176
     1
 40
0.6
176
     1
 40
30.0
176
     1
 62
     7
420
 16777215
176
     1
 90
        0
176
     1
 90
        0
176
     1
 62
     7
176
     1
 62
   257
176
     1
 90
        1
176
     1
 90
        1
176
     1
 40
1.0
176
     1
 90
        8
176
     1
 62
     7
176
     1
 40
1.0
176
     1
 90
        1
176
     1
 90
        6
176
     1
 90
        2
176
     1
 62
     7
176
     1
 90
        5
176
     1
 90
        0
176
     1
 90
        0
176
     1
290
     0
176
     1
 90
       13
176
     1
 40
0.0
176
     1
 90
        0
176
     1
290
     0
176
     1
290
     1
176
     1
290
     1
176
     1
290
     0
176
     1
290
     0
176
     1
290
     0
176
     1
290
     0
176
     1
290
     0
176
     1
290
     0
176
     1
 90
       50
176
     1
 40
0.0
176
     1
 40
1.0
176
     1
 90
        0
176
     1
 62
   178
420
        0
176
     1
 90
       50
176
     1
 90
        3
176
     1
 62
     5
420
      255
176
     1
290
     0
176
     1
 90
       50
176
     1
 90
       50
176
     1
 90
       50
176
     1
290
     0
176
     1
 90
       50
176
     1
 62
   256
176
     0
 40
1.0
176
     0
 90
        2
176
     1
  1
strokes_ogs.tif
176
     1
290
     0
176
     1
 40
1.0
176
     1
 40
1.0
176
     1
  0
VISUALSTYLE
  5
5AB7
102
{ACAD_REACTORS
330
5AB5
102
}
330
5AB5
100
AcDbVisualStyle
  2
FlatWithEdges
 70
     1
177
     3
291
     1
 70
    58
 90
        2
176
     1
 90
        1
176
     1
 90
        1
176
     1
 90
        2
176
     1
 40
0.6
176
     1
 40
30.0
176
     1
 62
     7
420
 16777215
176
     1
 90
        1
176
     1
 90
        0
176
     1
 62
     7
176
     1
 62
   257
176
     1
 90
        1
176
     1
 90
        1
176
     1
 40
1.0
176
     1
 90
        0
176
     1
 62
   257
176
     1
 40
1.0
176
     1
 90
        1
176
     1
 90
        6
176
     1
 90
        2
176
     1
 62
     7
176
     1
 90
        5
176
     1
 90
        0
176
     1
 90
        0
176
     1
290
     0
176
     1
 90
       13
176
     1
 40
0.0
176
     1
 90
        0
176
     1
290
     0
176
     1
290
     1
176
     1
290
     1
176
     1
290
     0
176
     1
290
     0
176
     1
290
     0
176
     1
290
     0
176
     1
290
     0
176
     1
290
     0
176
     1
 90
       50
176
     1
 40
0.0
176
     1
 40
1.0
176
     1
 90
        0
176
     1
 62
   178
420
        0
176
     1
 90
       50
176
     1
 90
        3
176
     1
 62
     5
420
      255
176
     1
290
     0
176
     1
 90
       50
176
     1
 90
       50
176
     1
 90
       50
176
     1
290
     0
176
     1
 90
       50
176
     1
 62
   256
176
     0
 40
1.0
176
     0
 90
        2
176
     1
  1
strokes_ogs.tif
176
     1
290
     0
176
     1
 40
1.0
176
     1
 40
1.0
176
     1
  0
VISUALSTYLE
  5
5AB8
102
{ACAD_REACTORS
330
5AB5
102
}
330
5AB5
100
AcDbVisualStyle
  2
Gouraud
 70
     2
177
     3
291
     1
 70
    58
 90
        2
176
     1
 90
        2
176
     1
 90
        1
176
     1
 90
        2
176
     1
 40
0.6
176
     1
 40
30.0
176
     1
 62
     7
420
 16777215
176
     1
 90
        0
176
     1
 90
        0
176
     1
 62
     7
176
     1
 62
   257
176
     1
 90
        1
176
     1
 90
        1
176
     1
 40
1.0
176
     1
 90
        0
176
     1
 62
     7
176
     1
 40
1.0
176
     1
 90
        1
176
     1
 90
        6
176
     1
 90
        2
176
     1
 62
     7
176
     1
 90
        5
176
     1
 90
        0
176
     1
 90
        0
176
     1
290
     0
176
     1
 90
       13
176
     1
 40
0.0
176
     1
 90
        0
176
     1
290
     0
176
     1
290
     1
176
     1
290
     1
176
     1
290
     0
176
     1
290
     0
176
     1
290
     0
176
     1
290
     0
176
     1
290
     0
176
     1
290
     0
176
     1
 90
       50
176
     1
 40
0.0
176
     1
 40
1.0
176
     1
 90
        0
176
     1
 62
   178
420
        0
176
     1
 90
       50
176
     1
 90
        3
176
     1
 62
     5
420
      255
176
     1
290
     0
176
     1
 90
       50
176
     1
 90
       50
176
     1
 90
       50
176
     1
290
     0
176
     1
 90
       50
176
     1
 62
   256
176
     0
 40
1.0
176
     0
 90
        2
176
     1
  1
strokes_ogs.tif
176
     1
290
     0
176
     1
 40
1.0
176
     1
 40
1.0
176
     1
  0
VISUALSTYLE
  5
5AB9
102
{ACAD_REACTORS
330
5AB5
102
}
330
5AB5
100
AcDbVisualStyle
  2
GouraudWithEdges
 70
     3
177
     3
291
     1
 70
    58
 90
        2
176
     1
 90
        2
176
     1
 90
        1
176
     1
 90
        2
176
     1
 40
0.6
176
     1
 40
30.0
176
     1
 62
     7
420
 16777215
176
     1
 90
        1
176
     1
 90
        0
176
     1
 62
     7
176
     1
 62
   257
176
     1
 90
        1
176
     1
 90
        1
176
     1
 40
1.0
176
     1
 90
        0
176
     1
 62
   257
176
     1
 40
1.0
176
     1
 90
        1
176
     1
 90
        6
176
     1
 90
        2
176
     1
 62
     7
176
     1
 90
        5
176
     1
 90
        0
176
     1
 90
        0
176
     1
290
     0
176
     1
 90
       13
176
     1
 40
0.0
176
     1
 90
        0
176
     1
290
     0
176
     1
290
     1
176
     1
290
     1
176
     1
290
     0
176
     1
290
     0
176
     1
290
     0
176
     1
290
     0
176
     1
290
     0
176
     1
290
     0
176
     1
 90
       50
176
     1
 40
0.0
176
     1
 40
1.0
176
     1
 90
        0
176
     1
 62
   178
420
        0
176
     1
 90
       50
176
     1
 90
        3
176
     1
 62
     5
420
      255
176
     1
290
     0
176
     1
 90
       50
176
     1
 90
       50
176
     1
 90
       50
176
     1
290
     0
176
     1
 90
       50
176
     1
 62
   256
176
     0
 40
1.0
176
     0
 90
        2
176
     1
  1
strokes_ogs.tif
176
     1
290
     0
176
     1
 40
1.0
176
     1
 40
1.0
176
     1
  0
VISUALSTYLE
  5
5ABC
102
{ACAD_REACTORS
330
5AB5
102
}
330
5AB5
100
AcDbVisualStyle
  2
Hidden
 70
     6
177
     3
291
     0
 70
    58
 90
        1
176
     1
 90
        2
176
     1
 90
        2
176
     1
 90
        0
176
     1
 40
0.6
176
     1
 40
30.0
176
     1
 62
     7
420
 16777215
176
     1
 90
        2
176
     1
 90
        2
176
     1
 62
     7
176
     1
 62
   257
176
     1
 90
        2
176
     1
 90
        1
176
     1
 40
40.0
176
     1
 90
        0
176
     1
 62
   257
176
     1
 40
1.0
176
     1
 90
        1
176
     1
 90
        6
176
     1
 90
        2
176
     1
 62
     7
176
     1
 90
        3
176
     1
 90
        0
176
     1
 90
        0
176
     1
290
     0
176
     1
 90
        1
176
     1
 40
0.0
176
     1
 90
        0
176
     1
290
     0
176
     1
290
     1
176
     1
290
     1
176
     1
290
     0
176
     1
290
     0
176
     1
290
     0
176
     1
290
     0
176
     1
290
     0
176
     1
290
     0
176
     1
 90
       50
176
     1
 40
0.0
176
     1
 40
1.0
176
     1
 90
        0
176
     1
 62
   178
420
        0
176
     1
 90
       50
176
     1
 90
        3
176
     1
 62
     5
420
      255
176
     1
290
     0
176
     1
 90
       50
176
     1
 90
       50
176
     1
 90
       50
176
     1
290
     0
176
     1
 90
       50
176
     1
 62
   256
176
     0
 40
1.0
176
     0
 90
        2
176
     1
  1
strokes_ogs.tif
176
     1
290
     0
176
     1
 40
1.0
176
     1
 40
1.0
176
     1
  0
VISUALSTYLE
  5
5AC6
102
{ACAD_REACTORS
330
5AB5
102
}
330
5AB5
100
AcDbVisualStyle
  2
JitterOff
 70
    20
177
     3
291
     1
 70
    58
 90
        2
176
     0
 90
        2
176
     0
 90
        0
176
     0
 90
        0
176
     0
 40
0.6
176
     0
 40
30.0
176
     0
 62
     7
420
 16777215
176
     0
 90
        1
176
     0
 90
        4
176
     0
 62
     7
176
     0
 62
   257
176
     0
 90
        1
176
     0
 90
        1
176
     0
 40
1.0
176
     0
 90
       10
176
     2
 62
     7
176
     0
 40
1.0
176
     0
 90
        1
176
     0
 90
        6
176
     0
 90
        2
176
     0
 62
     7
176
     0
 90
        5
176
     0
 90
        0
176
     0
 90
        0
176
     0
290
     0
176
     0
 90
        1
176
     0
 40
0.0
176
     0
 90
        0
176
     0
290
     0
176
     0
290
     1
176
     0
290
     1
176
     0
290
     0
176
     0
290
     0
176
     0
290
     0
176
     0
290
     0
176
     0
290
     0
176
     0
290
     0
176
     0
 90
       50
176
     0
 40
0.0
176
     0
 40
1.0
176
     0
 90
        0
176
     0
 62
   178
420
        0
176
     0
 90
       50
176
     0
 90
        3
176
     0
 62
     5
420
      255
176
     0
290
     0
176
     0
 90
       50
176
     0
 90
       50
176
     0
 90
       50
176
     0
290
     0
176
     0
 90
       50
176
     0
 62
   256
176
     0
 40
1.0
176
     0
 90
        2
176
     0
  1
strokes_ogs.tif
176
     0
290
     0
176
     0
 40
1.0
176
     0
 40
1.0
176
     0
  0
VISUALSTYLE
  5
5AC3
102
{ACAD_REACTORS
330
5AB5
102
}
330
5AB5
100
AcDbVisualStyle
  2
Linepattern
 70
    14
177
     3
291
     1
 70
    58
 90
        2
176
     1
 90
        2
176
     1
 90
        0
176
     1
 90
        0
176
     1
 40
0.6
176
     1
 40
30.0
176
     1
 62
     7
420
 16777215
176
     1
 90
        1
176
     1
 90
        4
176
     1
 62
     7
176
     1
 62
   257
176
     1
 90
        7
176
     1
 90
        7
176
     1
 40
1.0
176
     1
 90
        8
176
     1
 62
     7
176
     1
 40
1.0
176
     1
 90
        1
176
     1
 90
        6
176
     1
 90
        2
176
     1
 62
     7
176
     1
 90
        5
176
     1
 90
        0
176
     1
 90
        0
176
     1
290
     0
176
     1
 90
        1
176
     1
 40
0.0
176
     1
 90
        0
176
     1
290
     0
176
     1
290
     1
176
     1
290
     1
176
     1
290
     0
176
     1
290
     0
176
     1
290
     0
176
     1
290
     0
176
     1
290
     0
176
     1
290
     0
176
     1
 90
       50
176
     1
 40
0.0
176
     1
 40
1.0
176
     1
 90
        0
176
     1
 62
   178
420
        0
176
     1
 90
       50
176
     1
 90
        3
176
     1
 62
     5
420
      255
176
     1
290
     0
176
     1
 90
       50
176
     1
 90
       50
176
     1
 90
       50
176
     1
290
     0
176
     1
 90
       50
176
     1
 62
   256
176
     0
 40
1.0
176
     0
 90
        2
176
     1
  1
strokes_ogs.tif
176
     1
290
     0
176
     1
 40
1.0
176
     1
 40
1.0
176
     1
  0
VISUALSTYLE
  5
5AC7
102
{ACAD_REACTORS
330
5AB5
102
}
330
5AB5
100
AcDbVisualStyle
  2
OverhangOff
 70
    21
177
     3
291
     1
 70
    58
 90
        2
176
     0
 90
        2
176
     0
 90
        0
176
     0
 90
        0
176
     0
 40
0.6
176
     0
 40
30.0
176
     0
 62
     7
420
 16777215
176
     0
 90
        1
176
     0
 90
        4
176
     0
 62
     7
176
     0
 62
   257
176
     0
 90
        1
176
     0
 90
        1
176
     0
 40
1.0
176
     0
 90
        9
176
     2
 62
     7
176
     0
 40
1.0
176
     0
 90
        1
176
     0
 90
        6
176
     0
 90
        2
176
     0
 62
     7
176
     0
 90
        5
176
     0
 90
        0
176
     0
 90
        0
176
     0
290
     0
176
     0
 90
        1
176
     0
 40
0.0
176
     0
 90
        0
176
     0
290
     0
176
     0
290
     1
176
     0
290
     1
176
     0
290
     0
176
     0
290
     0
176
     0
290
     0
176
     0
290
     0
176
     0
290
     0
176
     0
290
     0
176
     0
 90
       50
176
     0
 40
0.0
176
     0
 40
1.0
176
     0
 90
        0
176
     0
 62
   178
420
        0
176
     0
 90
       50
176
     0
 90
        3
176
     0
 62
     5
420
      255
176
     0
290
     0
176
     0
 90
       50
176
     0
 90
       50
176
     0
 90
       50
176
     0
290
     0
176
     0
 90
       50
176
     0
 62
   256
176
     0
 40
1.0
176
     0
 90
        2
176
     0
  1
strokes_ogs.tif
176
     0
290
     0
176
     0
 40
1.0
176
     0
 40
1.0
176
     0
  0
VISUALSTYLE
  5
5ABE
102
{ACAD_REACTORS
330
5AB5
102
}
330
5AB5
100
AcDbVisualStyle
  2
Realistic
 70
     8
177
     3
291
     0
 70
    58
 90
        2
176
     1
 90
        3
176
     1
 90
        0
176
     1
 90
        2
176
     1
 40
0.6
176
     1
 40
30.0
176
     1
 62
     7
420
 16777215
176
     1
 90
        0
176
     1
 90
        0
176
     1
 62
     7
176
     1
 62
   257
176
     1
 90
        1
176
     1
 90
        1
176
     1
 40
1.0
176
     1
 90
        8
176
     1
 62
   257
176
     1
 40
1.0
176
     1
 90
        1
176
     1
 90
        6
176
     1
 90
        2
176
     1
 62
     7
176
     1
 90
        3
176
     1
 90
        0
176
     1
 90
        0
176
     1
290
     0
176
     1
 90
       13
176
     1
 40
0.0
176
     1
 90
        0
176
     1
290
     0
176
     1
290
     1
176
     1
290
     1
176
     1
290
     0
176
     1
290
     0
176
     1
290
     0
176
     1
290
     0
176
     1
290
     0
176
     1
290
     0
176
     1
 90
       50
176
     1
 40
0.0
176
     1
 40
1.0
176
     1
 90
        0
176
     1
 62
   178
420
        0
176
     1
 90
       50
176
     1
 90
        3
176
     1
 62
     5
420
      255
176
     1
290
     0
176
     1
 90
       50
176
     1
 90
       50
176
     1
 90
       50
176
     1
290
     0
176
     1
 90
       50
176
     1
 62
   256
176
     0
 40
1.0
176
     0
 90
        2
176
     1
  1
strokes_ogs.tif
176
     1
290
     0
176
     1
 40
1.0
176
     1
 40
1.0
176
     1
  0
VISUALSTYLE
  5
5ACD
102
{ACAD_REACTORS
330
5AB5
102
}
330
5AB5
100
AcDbVisualStyle
  2
Shaded
 70
    27
177
     3
291
     0
 70
    58
 90
        2
176
     1
 90
        2
176
     1
 90
        1
176
     1
 90
        2
176
     1
 40
0.6
176
     1
 40
30.0
176
     1
 62
     7
420
 16777215
176
     1
 90
        0
176
     1
 90
        4
176
     1
 62
     7
176
     1
 62
   257
176
     1
 90
        1
176
     1
 90
        1
176
     1
 40
1.0
176
     1
 90
        8
176
     1
 62
   257
176
     1
 40
1.0
176
     1
 90
        1
176
     1
 90
        6
176
     1
 90
        2
176
     1
 62
     8
420
  7895160
176
     1
 90
        3
176
     1
 90
        0
176
     1
 90
        0
176
     1
290
     0
176
     1
 90
        5
176
     1
 40
0.0
176
     1
 90
        0
176
     1
290
     0
176
     1
290
     1
176
     1
290
     1
176
     1
290
     0
176
     1
290
     0
176
     1
290
     0
176
     1
290
     0
176
     1
290
     0
176
     1
290
     0
176
     1
 90
       50
176
     1
 40
0.0
176
     1
 40
1.0
176
     1
 90
        0
176
     1
 62
   178
420
        0
176
     1
 90
       50
176
     1
 90
        3
176
     1
 62
     5
420
      255
176
     1
290
     0
176
     1
 90
       50
176
     1
 90
       50
176
     1
 90
       50
176
     1
290
     0
176
     1
 90
       50
176
     1
 62
   256
176
     0
 40
1.0
176
     0
 90
        2
176
     1
  1
strokes_ogs.tif
176
     1
290
     0
176
     1
 40
1.0
176
     1
 40
1.0
176
     1
  0
VISUALSTYLE
  5
5ACC
102
{ACAD_REACTORS
330
5AB5
102
}
330
5AB5
100
AcDbVisualStyle
  2
Shaded with edges
 70
    26
177
     3
291
     0
 70
    58
 90
        2
176
     1
 90
        2
176
     1
 90
        1
176
     1
 90
        2
176
     1
 40
0.6
176
     1
 40
30.0
176
     1
 62
     7
420
 16777215
176
     1
 90
        1
176
     1
 90
       10
176
     1
 62
     7
176
     1
 62
   257
176
     1
 90
        2
176
     1
 90
        1
176
     1
 40
1.0
176
     1
 90
        8
176
     1
 62
   257
176
     1
 40
1.0
176
     1
 90
        1
176
     1
 90
        6
176
     1
 90
        2
176
     1
 62
     7
176
     1
 90
        3
176
     1
 90
        0
176
     1
 90
        0
176
     1
290
     0
176
     1
 90
        5
176
     1
 40
0.0
176
     1
 90
        0
176
     1
290
     0
176
     1
290
     1
176
     1
290
     1
176
     1
290
     0
176
     1
290
     0
176
     1
290
     0
176
     1
290
     0
176
     1
290
     0
176
     1
290
     0
176
     1
 90
       50
176
     1
 40
0.0
176
     1
 40
1.0
176
     1
 90
        0
176
     1
 62
   178
420
        0
176
     1
 90
       50
176
     1
 90
        3
176
     1
 62
     5
420
      255
176
     1
290
     0
176
     1
 90
       50
176
     1
 90
       50
176
     1
 90
       50
176
     1
290
     0
176
     1
 90
       50
176
     1
 62
   256
176
     0
 40
1.0
176
     0
 90
        2
176
     1
  1
strokes_ogs.tif
176
     1
290
     0
176
     1
 40
1.0
176
     1
 40
1.0
176
     1
  0
VISUALSTYLE
  5
5AC9
102
{ACAD_REACTORS
330
5AB5
102
}
330
5AB5
100
AcDbVisualStyle
  2
Shades of Gray
 70
    23
177
     3
291
     0
 70
    58
 90
        2
176
     1
 90
        2
176
     1
 90
        3
176
     1
 90
        0
176
     1
 40
0.6
176
     1
 40
30.0
176
     1
 62
     7
420
 16777215
176
     1
 90
        2
176
     1
 90
        2
176
     1
 62
     7
176
     1
 62
     7
176
     1
 90
        1
176
     1
 90
        1
176
     1
 40
40.0
176
     1
 90
        8
176
     1
 62
     7
176
     1
 40
1.0
176
     1
 90
        1
176
     1
 90
        6
176
     1
 90
        2
176
     1
 62
     7
176
     1
 90
        3
176
     1
 90
        0
176
     1
 90
        0
176
     1
290
     0
176
     1
 90
        1
176
     1
 40
0.0
176
     1
 90
        0
176
     1
290
     0
176
     1
290
     1
176
     1
290
     1
176
     1
290
     0
176
     1
290
     0
176
     1
290
     0
176
     1
290
     0
176
     1
290
     0
176
     1
290
     0
176
     1
 90
       50
176
     1
 40
0.0
176
     1
 40
1.0
176
     1
 90
        0
176
     1
 62
   178
420
        0
176
     1
 90
       50
176
     1
 90
        3
176
     1
 62
     5
420
      255
176
     1
290
     0
176
     1
 90
       50
176
     1
 90
       50
176
     1
 90
       50
176
     1
290
     0
176
     1
 90
       50
176
     1
 62
   256
176
     0
 40
1.0
176
     0
 90
        2
176
     1
  1
strokes_ogs.tif
176
     1
290
     0
176
     1
 40
1.0
176
     1
 40
1.0
176
     1
  0
VISUALSTYLE
  5
5ACA
102
{ACAD_REACTORS
330
5AB5
102
}
330
5AB5
100
AcDbVisualStyle
  2
Sketchy
 70
    24
177
     3
291
     0
 70
    58
 90
        1
176
     1
 90
        2
176
     1
 90
        2
176
     1
 90
        0
176
     1
 40
0.6
176
     1
 40
30.0
176
     1
 62
     7
420
 16777215
176
     1
 90
        2
176
     1
 90
        2
176
     1
 62
     7
176
     1
 62
     7
176
     1
 90
        1
176
     1
 90
        1
176
     1
 40
40.0
176
     1
 90
       11
176
     1
 62
     7
176
     1
 40
1.0
176
     1
 90
        1
176
     1
 90
        6
176
     1
 90
        2
176
     1
 62
     7
176
     1
 90
        6
176
     1
 90
        0
176
     1
 90
        0
176
     1
290
     0
176
     1
 90
        1
176
     1
 40
0.0
176
     1
 90
        0
176
     1
290
     0
176
     1
290
     1
176
     1
290
     1
176
     1
290
     0
176
     1
290
     0
176
     1
290
     0
176
     1
290
     0
176
     1
290
     0
176
     1
290
     0
176
     1
 90
       50
176
     1
 40
0.0
176
     1
 40
1.0
176
     1
 90
        0
176
     1
 62
   178
420
        0
176
     1
 90
       50
176
     1
 90
        3
176
     1
 62
     5
420
      255
176
     1
290
     0
176
     1
 90
       50
176
     1
 90
       50
176
     1
 90
       50
176
     1
290
     0
176
     1
 90
       50
176
     1
 62
   256
176
     0
 40
1.0
176
     0
 90
        2
176
     1
  1
strokes_ogs.tif
176
     1
290
     0
176
     1
 40
1.0
176
     1
 40
1.0
176
     1
  0
VISUALSTYLE
  5
5AC2
102
{ACAD_REACTORS
330
5AB5
102
}
330
5AB5
100
AcDbVisualStyle
  2
Thicken
 70
    13
177
     3
291
     1
 70
    58
 90
        2
176
     1
 90
        2
176
     1
 90
        0
176
     1
 90
        0
176
     1
 40
0.6
176
     1
 40
30.0
176
     1
 62
     7
420
 16777215
176
     1
 90
        1
176
     1
 90
        4
176
     1
 62
     7
176
     1
 62
   257
176
     1
 90
        1
176
     1
 90
        1
176
     1
 40
1.0
176
     1
 90
       12
176
     1
 62
     7
176
     1
 40
1.0
176
     1
 90
        1
176
     1
 90
        6
176
     1
 90
        2
176
     1
 62
     7
176
     1
 90
        5
176
     1
 90
        0
176
     1
 90
        0
176
     1
290
     0
176
     1
 90
        1
176
     1
 40
0.0
176
     1
 90
        0
176
     1
290
     0
176
     1
290
     1
176
     1
290
     1
176
     1
290
     0
176
     1
290
     0
176
     1
290
     0
176
     1
290
     0
176
     1
290
     0
176
     1
290
     0
176
     1
 90
       50
176
     1
 40
0.0
176
     1
 40
1.0
176
     1
 90
        0
176
     1
 62
   178
420
        0
176
     1
 90
       50
176
     1
 90
        3
176
     1
 62
     5
420
      255
176
     1
290
     0
176
     1
 90
       50
176
     1
 90
       50
176
     1
 90
       50
176
     1
290
     0
176
     1
 90
       50
176
     1
 62
   256
176
     0
 40
1.0
176
     0
 90
        2
176
     1
  1
strokes_ogs.tif
176
     1
290
     0
176
     1
 40
1.0
176
     1
 40
1.0
176
     1
  0
VISUALSTYLE
  5
5ABB
102
{ACAD_REACTORS
330
5AB5
102
}
330
5AB5
100
AcDbVisualStyle
  2
Wireframe
 70
     5
177
     3
291
     0
 70
    58
 90
        0
176
     1
 90
        2
176
     1
 90
        0
176
     1
 90
        0
176
     1
 40
0.6
176
     1
 40
30.0
176
     1
 62
     7
420
 16777215
176
     1
 90
        1
176
     1
 90
        4
176
     1
 62
     7
176
     1
 62
   257
176
     1
 90
        1
176
     1
 90
        1
176
     1
 40
1.0
176
     1
 90
        0
176
     1
 62
   257
176
     1
 40
1.0
176
     1
 90
        1
176
     1
 90
        6
176
     1
 90
        2
176
     1
 62
     7
176
     1
 90
        3
176
     1
 90
        0
176
     1
 90
        0
176
     1
290
     0
176
     1
 90
        1
176
     1
 40
0.0
176
     1
 90
        0
176
     1
290
     0
176
     1
290
     1
176
     1
290
     1
176
     1
290
     0
176
     1
290
     0
176
     1
290
     0
176
     1
290
     0
176
     1
290
     0
176
     1
290
     0
176
     1
 90
       50
176
     1
 40
0.0
176
     1
 40
1.0
176
     1
 90
        0
176
     1
 62
   178
420
        0
176
     1
 90
       50
176
     1
 90
        3
176
     1
 62
     5
420
      255
176
     1
290
     0
176
     1
 90
       50
176
     1
 90
       50
176
     1
 90
       50
176
     1
290
     0
176
     1
 90
       50
176
     1
 62
   256
176
     0
 40
1.0
176
     0
 90
        2
176
     1
  1
strokes_ogs.tif
176
     1
290
     0
176
     1
 40
1.0
176
     1
 40
1.0
176
     1
  0
VISUALSTYLE
  5
5ACB
102
{ACAD_REACTORS
330
5AB5
102
}
330
5AB5
100
AcDbVisualStyle
  2
X-Ray
 70
    25
177
     3
291
     0
 70
    58
 90
        2
176
     1
 90
        2
176
     1
 90
        1
176
     1
 90
        1
176
     1
 40
0.5
176
     1
 40
30.0
176
     1
 62
     7
420
 16777215
176
     1
 90
        1
176
     1
 90
        0
176
     1
 62
     7
176
     1
 62
   257
176
     1
 90
        1
176
     1
 90
        1
176
     1
 40
1.0
176
     1
 90
        8
176
     1
 62
     7
176
     1
 40
1.0
176
     1
 90
        1
176
     1
 90
        6
176
     1
 90
        2
176
     1
 62
     7
176
     1
 90
        3
176
     1
 90
        0
176
     1
 90
        0
176
     1
290
     0
176
     1
 90
       13
176
     1
 40
0.0
176
     1
 90
        0
176
     1
290
     0
176
     1
290
     1
176
     1
290
     1
176
     1
290
     0
176
     1
290
     0
176
     1
290
     0
176
     1
290
     0
176
     1
290
     0
176
     1
290
     0
176
     1
 90
       50
176
     1
 40
0.0
176
     1
 40
1.0
176
     1
 90
        0
176
     1
 62
   178
420
        0
176
     1
 90
       50
176
     1
 90
        3
176
     1
 62
     5
420
      255
176
     1
290
     0
176
     1
 90
       50
176
     1
 90
       50
176
     1
 90
       50
176
     1
290
     0
176
     1
 90
       50
176
     1
 62
   256
176
     0
 40
1.0
176
     0
 90
        2
176
     1
  1
strokes_ogs.tif
176
     1
290
     0
176
     1
 40
1.0
176
     1
 40
1.0
176
     1
  0
DICTIONARYVAR
  5
5BD2
102
{ACAD_REACTORS
330
5BD1
102
}
330
5BD1
100
DictionaryVariables
280
     0
  1
1:1
  0
DICTIONARYVAR
  5
5BD7
102
{ACAD_REACTORS
330
5BD1
102
}
330
5BD1
100
DictionaryVariables
280
     0
  1
Standard
  0
DICTIONARYVAR
  5
5BD6
102
{ACAD_REACTORS
330
5BD1
102
}
330
5BD1
100
DictionaryVariables
280
     0
  1
Standard
  0
XRECORD
  5
5AFC
102
{ACAD_REACTORS
330
5AFA
102
}
330
5AFA
100
AcDbXrecord
280
     1
 90
        0
  0
XRECORD
  5
5AFD
102
{ACAD_REACTORS
330
5AFA
102
}
330
5AFA
100
AcDbXrecord
280
     1
 90
        0
  0
XRECORD
  5
5AFE
102
{ACAD_REACTORS
330
5AFA
102
}
330
5AFA
100
AcDbXrecord
280
     1
1000
Standard
  0
XRECORD
  5
5AFF
102
{ACAD_REACTORS
330
5AFA
102
}
330
5AFA
100
AcDbXrecord
280
     1
290
     1
  0
XRECORD
  5
5B00
102
{ACAD_REACTORS
330
5AFA
102
}
330
5AFA
100
AcDbXrecord
280
     1
 90
        2
  0
XRECORD
  5
5B01
102
{ACAD_REACTORS
330
5AFA
102
}
330
5AFA
100
AcDbXrecord
280
     1
 90
        4
  0
XRECORD
  5
5B02
102
{ACAD_REACTORS
330
5AFA
102
}
330
5AFA
100
AcDbXrecord
280
     1
290
     1
  0
XRECORD
  5
5B03
102
{ACAD_REACTORS
330
5AFA
102
}
330
5AFA
100
AcDbXrecord
280
     1
290
     1
  0
XRECORD
  5
5B04
102
{ACAD_REACTORS
330
5AFA
102
}
330
5AFA
100
AcDbXrecord
280
     1
290
     1
  0
XRECORD
  5
5B05
102
{ACAD_REACTORS
330
5AFA
102
}
330
5AFA
100
AcDbXrecord
280
     1
290
     1
  0
XRECORD
  5
5B06
102
{ACAD_REACTORS
330
5AFA
102
}
330
5AFA
100
AcDbXrecord
280
     1
1000
auto
  0
XRECORD
  5
5B07
102
{ACAD_REACTORS
330
5AFA
102
}
330
5AFA
100
AcDbXrecord
280
     1
1000
auto
  0
XRECORD
  5
5B08
102
{ACAD_REACTORS
330
5AFA
102
}
330
5AFA
100
AcDbXrecord
280
     1
1000
auto
  0
XRECORD
  5
5B09
102
{ACAD_REACTORS
330
5AFA
102
}
330
5AFA
100
AcDbXrecord
280
     1
1000
auto
  0
XRECORD
  5
5B0A
102
{ACAD_REACTORS
330
5AFA
102
}
330
5AFA
100
AcDbXrecord
280
     1
1000
auto
  0
XRECORD
  5
5B0B
102
{ACAD_REACTORS
330
5AFA
102
}
330
5AFA
100
AcDbXrecord
280
     1
1000
auto
  0
XRECORD
  5
5B0C
102
{ACAD_REACTORS
330
5AFA
102
}
330
5AFA
100
AcDbXrecord
280
     1
1000
auto
  0
XRECORD
  5
5B0D
102
{ACAD_REACTORS
330
5AFA
102
}
330
5AFA
100
AcDbXrecord
280
     1
1000
auto
  0
XRECORD
  5
5B0E
102
{ACAD_REACTORS
330
5AFA
102
}
330
5AFA
100
AcDbXrecord
280
     1
290
     0
  0
XRECORD
  5
5B0F
102
{ACAD_REACTORS
330
5AFA
102
}
330
5AFA
100
AcDbXrecord
280
     1
290
     0
  0
XRECORD
  5
5B10
102
{ACAD_REACTORS
330
5AFA
102
}
330
5AFA
100
AcDbXrecord
280
     1
290
     0
  0
XRECORD
  5
5B11
102
{ACAD_REACTORS
330
5AFA
102
}
330
5AFA
100
AcDbXrecord
280
     1
290
     0
  0
XRECORD
  5
5B12
102
{ACAD_REACTORS
330
5AFA
102
}
330
5AFA
100
AcDbXrecord
280
     1
 90
        0
  0
XRECORD
  5
5B13
102
{ACAD_REACTORS
330
5AFA
102
}
330
5AFA
100
AcDbXrecord
280
     1
 90
        0
  0
XRECORD
  5
5B14
102
{ACAD_REACTORS
330
5AFA
102
}
330
5AFA
100
AcDbXrecord
280
     1
 90
        0
  0
XRECORD
  5
5B15
102
{ACAD_REACTORS
330
5AFA
102
}
330
5AFA
100
AcDbXrecord
280
     1
 90
        0
  0
XRECORD
  5
5B16
102
{ACAD_REACTORS
330
5AFA
102
}
330
5AFA
100
AcDbXrecord
280
     1
1000
auto
  0
XRECORD
  5
5B17
102
{ACAD_REACTORS
330
5AFA
102
}
330
5AFA
100
AcDbXrecord
280
     1
1000
auto
  0
XRECORD
  5
5B18
102
{ACAD_REACTORS
330
5AFA
102
}
330
5AFA
100
AcDbXrecord
280
     1
1000
auto
  0
XRECORD
  5
5B19
102
{ACAD_REACTORS
330
5AFA
102
}
330
5AFA
100
AcDbXrecord
280
     1
1000
auto
  0
XRECORD
  5
5B1A
102
{ACAD_REACTORS
330
5AFA
102
}
330
5AFA
100
AcDbXrecord
280
     1
1000
auto
  0
XRECORD
  5
5B1B
102
{ACAD_REACTORS
330
5AFA
102
}
330
5AFA
100
AcDbXrecord
280
     1
1000
auto
  0
XRECORD
  5
5B1C
102
{ACAD_REACTORS
330
5AFA
102
}
330
5AFA
100
AcDbXrecord
280
     1
1000
auto
  0
XRECORD
  5
5B1D
102
{ACAD_REACTORS
330
5AFA
102
}
330
5AFA
100
AcDbXrecord
280
     1
1000
auto
  0
XRECORD
  5
5B1E
102
{ACAD_REACTORS
330
5AFA
102
}
330
5AFA
100
AcDbXrecord
280
     1
 90
        1
  0
XRECORD
  5
5B1F
102
{ACAD_REACTORS
330
5AFA
102
}
330
5AFA
100
AcDbXrecord
280
     1
 40
10.0
  0
XRECORD
  5
5B20
102
{ACAD_REACTORS
330
5AFA
102
}
330
5AFA
100
AcDbXrecord
280
     1
 40
10.0
  0
XRECORD
  5
5B21
102
{ACAD_REACTORS
330
5AFA
102
}
330
5AFA
100
AcDbXrecord
280
     1
 40
10.0
  0
XRECORD
  5
5B22
102
{ACAD_REACTORS
330
5AFA
102
}
330
5AFA
100
AcDbXrecord
280
     1
 40
10.0
  0
XRECORD
  5
5B23
102
{ACAD_REACTORS
330
5AFA
102
}
330
5AFA
100
AcDbXrecord
280
     1
290
     0
  0
XRECORD
  5
5B24
102
{ACAD_REACTORS
330
5AFA
102
}
330
5AFA
100
AcDbXrecord
280
     1
 90
        1
  0
XRECORD
  5
5B25
102
{ACAD_REACTORS
330
5AFA
102
}
330
5AFA
100
AcDbXrecord
280
     1
 40
-41.25
  0
XRECORD
  5
5B26
102
{ACAD_REACTORS
330
5AFA
102
}
330
5AFA
100
AcDbXrecord
280
     1
 40
-85.59375
  0
XRECORD
  5
5B27
102
{ACAD_REACTORS
330
5AFA
102
}
330
5AFA
100
AcDbXrecord
280
     1
1000
Landscape
  0
XRECORD
  5
5B28
102
{ACAD_REACTORS
330
5AFA
102
}
330
5AFA
100
AcDbXrecord
280
     1
 40
297.0
  0
XRECORD
  5
5B29
102
{ACAD_REACTORS
330
5AFA
102
}
330
5AFA
100
AcDbXrecord
280
     1
 40
210.0
  0
XRECORD
  5
5B2A
102
{ACAD_REACTORS
330
5AFA
102
}
330
5AFA
100
AcDbXrecord
280
     1
1000
1:1
  0
XRECORD
  5
5B2B
102
{ACAD_REACTORS
330
5AFA
102
}
330
5AFA
100
AcDbXrecord
280
     1
290
     1
  0
XRECORD
  5
5AFB
102
{ACAD_REACTORS
330
5AFA
102
}
330
5AFA
100
AcDbXrecord
280
     1
1000
3.7.5
  0
XRECORD
  5
5B2C
102
{ACAD_REACTORS
330
5AFA
102
}
330
5AFA
100
AcDbXrecord
280
     1
 90
        4
  0
DICTIONARY
  5
5BD3
330
5AF5
100
AcDbDictionary
280
     1
281
     1
  3
ACAD_ROUNDTRIP_2008_TABLESTYLE_CELLSTYLEMAP
360
5BD4
  0
CELLSTYLEMAP
  5
5BD4
102
{ACAD_REACTORS
330
5BD3
102
}
330
5BD3
100
AcDbCellStyleMap
 90
        3
300
CELLSTYLE
  1
TABLEFORMAT_BEGIN
 90
        5
170
     1
 91
        0
 92
    32768
 62
   257
 93
        1
300
CONTENTFORMAT
  1
CONTENTFORMAT_BEGIN
 90
        0
 91
        0
 92
        4
 93
        0
300

 40
0.0
140
1.0
 94
        5
 62
     0
340
5A9D
144
0.25
309
CONTENTFORMAT_END
171
     1
301
MARGIN
  1
CELLMARGIN_BEGIN
 40
0.06
 40
0.06
 40
0.06
 40
0.06
 40
0.06
 40
0.06
309
CELLMARGIN_END
 94
        6
 95
        1
302
GRIDFORMAT
  1
GRIDFORMAT_BEGIN
 90
        0
 91
        1
 62
     0
 92
       -2
340
5A9F
 93
        0
 40
0.045
309
GRIDFORMAT_END
 95
        2
302
GRIDFORMAT
  1
GRIDFORMAT_BEGIN
 90
        0
 91
        1
 62
     0
 92
       -2
340
5A9F
 93
        0
 40
0.045
309
GRIDFORMAT_END
 95
        4
302
GRIDFORMAT
  1
GRIDFORMAT_BEGIN
 90
        0
 91
        1
 62
     0
 92
       -2
340
5A9F
 93
        0
 40
0.045
309
GRIDFORMAT_END
 95
        8
302
GRIDFORMAT
  1
GRIDFORMAT_BEGIN
 90
        0
 91
        1
 62
     0
 92
       -2
340
5A9F
 93
        0
 40
0.045
309
GRIDFORMAT_END
 95
       16
302
GRIDFORMAT
  1
GRIDFORMAT_BEGIN
 90
        0
 91
        1
 62
     0
 92
       -2
340
5A9F
 93
        0
 40
0.045
309
GRIDFORMAT_END
 95
       32
302
GRIDFORMAT
  1
GRIDFORMAT_BEGIN
 90
        0
 91
        1
 62
     0
 92
       -2
340
5A9F
 93
        0
 40
0.045
309
GRIDFORMAT_END
309
TABLEFORMAT_END
  1
CELLSTYLE_BEGIN
 90
        1
 91
        1
300
_TITLE
309
CELLSTYLE_END
300
CELLSTYLE
  1
TABLEFORMAT_BEGIN
 90
        5
170
     1
 91
        0
 92
        0
 62
   257
 93
        1
300
CONTENTFORMAT
  1
CONTENTFORMAT_BEGIN
 90
        0
 91
        0
 92
        4
 93
        0
300

 40
0.0
140
1.0
 94
        5
 62
     0
340
5A9D
144
0.18
309
CONTENTFORMAT_END
171
     1
301
MARGIN
  1
CELLMARGIN_BEGIN
 40
0.06
 40
0.06
 40
0.06
 40
0.06
 40
0.06
 40
0.06
309
CELLMARGIN_END
 94
        6
 95
        1
302
GRIDFORMAT
  1
GRIDFORMAT_BEGIN
 90
        0
 91
        1
 62
     0
 92
       -2
340
5A9F
 93
        0
 40
0.045
309
GRIDFORMAT_END
 95
        2
302
GRIDFORMAT
  1
GRIDFORMAT_BEGIN
 90
        0
 91
        1
 62
     0
 92
       -2
340
5A9F
 93
        0
 40
0.045
309
GRIDFORMAT_END
 95
        4
302
GRIDFORMAT
  1
GRIDFORMAT_BEGIN
 90
        0
 91
        1
 62
     0
 92
       -2
340
5A9F
 93
        0
 40
0.045
309
GRIDFORMAT_END
 95
        8
302
GRIDFORMAT
  1
GRIDFORMAT_BEGIN
 90
        0
 91
        1
 62
     0
 92
       -2
340
5A9F
 93
        0
 40
0.045
309
GRIDFORMAT_END
 95
       16
302
GRIDFORMAT
  1
GRIDFORMAT_BEGIN
 90
        0
 91
        1
 62
     0
 92
       -2
340
5A9F
 93
        0
 40
0.045
309
GRIDFORMAT_END
 95
       32
302
GRIDFORMAT
  1
GRIDFORMAT_BEGIN
 90
        0
 91
        1
 62
     0
 92
       -2
340
5A9F
 93
        0
 40
0.045
309
GRIDFORMAT_END
309
TABLEFORMAT_END
  1
CELLSTYLE_BEGIN
 90
        2
 91
        1
300
_HEADER
309
CELLSTYLE_END
300
CELLSTYLE
  1
TABLEFORMAT_BEGIN
 90
        5
170
     1
 91
        0
 92
        0
 62
   257
 93
        1
300
CONTENTFORMAT
  1
CONTENTFORMAT_BEGIN
 90
        0
 91
        0
 92
        4
 93
        0
300

 40
0.0
140
1.0
 94
        2
 62
     0
340
5A9D
144
0.18
309
CONTENTFORMAT_END
171
     1
301
MARGIN
  1
CELLMARGIN_BEGIN
 40
0.06
 40
0.06
 40
0.06
 40
0.06
 40
0.06
 40
0.06
309
CELLMARGIN_END
 94
        6
 95
        1
302
GRIDFORMAT
  1
GRIDFORMAT_BEGIN
 90
        0
 91
        1
 62
     0
 92
       -2
340
5A9F
 93
        0
 40
0.045
309
GRIDFORMAT_END
 95
        2
302
GRIDFORMAT
  1
GRIDFORMAT_BEGIN
 90
        0
 91
        1
 62
     0
 92
       -2
340
5A9F
 93
        0
 40
0.045
309
GRIDFORMAT_END
 95
        4
302
GRIDFORMAT
  1
GRIDFORMAT_BEGIN
 90
        0
 91
        1
 62
     0
 92
       -2
340
5A9F
 93
        0
 40
0.045
309
GRIDFORMAT_END
 95
        8
302
GRIDFORMAT
  1
GRIDFORMAT_BEGIN
 90
        0
 91
        1
 62
     0
 92
       -2
340
5A9F
 93
        0
 40
0.045
309
GRIDFORMAT_END
 95
       16
302
GRIDFORMAT
  1
GRIDFORMAT_BEGIN
 90
        0
 91
        1
 62
     0
 92
       -2
340
5A9F
 93
        0
 40
0.045
309
GRIDFORMAT_END
 95
       32
302
GRIDFORMAT
  1
GRIDFORMAT_BEGIN
 90
        0
 91
        1
 62
     0
 92
       -2
340
5A9F
 93
        0
 40
0.045
309
GRIDFORMAT_END
309
TABLEFORMAT_END
  1
CELLSTYLE_BEGIN
 90
        3
 91
        2
300
_DATA
309
CELLSTYLE_END
  0
ENDSEC
  0
EOF
